Aleyna Tilki - Retrograde | (The Voice HD-1080i-MP2-IboYLDz)-HDMania

Discussion in 'The Voice HD' started by By.YLDz, Mar 3, 2021.

  1. By.YLDz

    By.YLDz Taylor Swift Fan.. Capper Uploader

    Joined:
    Oct 7, 2013
    Threads:
    616
    Messages:
    806
    Likes Received:
    9,026
    CappeD IboYLDz

    [​IMG]
    [​IMG]
    [​IMG]
    [​IMG]
    [​IMG]
    [​IMG]
    [​IMG]
    [​IMG]


    Format : MPEG-TS
    File size : 150 MiB
    Duration : 2 min 47 s
    Overall bit rate mode : Variable
    Overall bit rate : 7 496 kb/s

    Video
    ID : 1205 (0x4B5)
    Menu ID : 241 (0xF1)
    Format : AVC
    Format/Info : Advanced Video Codec
    Format profile : High@L4.1
    Format settings : CABAC / 4 Ref Frames
    Format settings, CABAC : Yes
    Format settings, Reference : 4 frames
    Codec ID : 27
    Duration : 2 min 47 s
    Bit rate : 6 932 kb/s
    Width : 1 920 pixels
    Height : 1 080 pixels
    Display aspect ratio : 16:9
    Frame rate : 25.000 FPS
    Color space : YUV
    Chroma subsampling : 4:2:0
    Bit depth : 8 bits
    Scan type : Interlaced
    Scan type, store method : Separated fields
    Scan order : Top Field First
    Bits/(Pixel*Frame) : 0.134
    Stream size : 138 MiB (92%)
    Color range : Limited
    Color primaries : BT.709
    Transfer characteristics : BT.709
    Matrix coefficients : BT.709

    Audio
    ID : 1206 (0x4B6)
    Menu ID : 241 (0xF1)
    Format : MPEG Audio
    Format version : Version 1
    Format profile : Layer 2
    Codec ID : 3
    Duration : 2 min 47 s
    Bit rate mode : Constant
    Bit rate : 192 kb/s
    Channel(s) : 2 channels
    Sampling rate : 48.0 kHz
    Frame rate : 41.667 FPS (1152 SPF)
    Compression mode : Lossy
    Delay relative to video : -120 ms
    Stream size : 3.83 MiB (3%)
    Language : Bulgarian

    Hidden Content:
    You must reply before you can see the hidden data contained here.
    Rar Pass : IboYLDz
     
  2. WaRKeR

    WaRKeR Active Member

    Joined:
    Feb 18, 2017
    Threads:
    5
    Messages:
    256
    Likes Received:
    161
    Ellerine sağlık kardeşim
     
    By.YLDz likes this.
  3. CELOBRAZiL

    CELOBRAZiL Well-Known Member Capper Uploader V . I . P. Donor

    Joined:
    Oct 2, 2013
    Threads:
    3,335
    Messages:
    15,888
    Likes Received:
    66,506
    Thanks! :)
     
    By.YLDz likes this.
  4. rhea

    rhea Well-Known Member

    Joined:
    Jan 6, 2014
    Threads:
    0
    Messages:
    13,611
    Likes Received:
    2,589
    thank you so much!
     
  5. craigtucker0

    craigtucker0 New Member

    Joined:
    Apr 25, 2021
    Threads:
    0
    Messages:
    1
    Likes Received:
    0
    thank u mate
     
  6. believer2017

    believer2017 Member

    Joined:
    Aug 19, 2017
    Threads:
    0
    Messages:
    69
    Likes Received:
    0
    Thank you.
     
  7. beryozael

    beryozael Well-Known Member

    Joined:
    Oct 25, 2020
    Threads:
    0
    Messages:
    1,750
    Likes Received:
    123
    спасибо
     
  8. SoTheDrama

    SoTheDrama Active Member

    Joined:
    Jun 2, 2021
    Threads:
    39
    Messages:
    376
    Likes Received:
    154
  9. batuu

    batuu Member

    Joined:
    Apr 15, 2019
    Threads:
    0
    Messages:
    227
    Likes Received:
    14
    thanks
     
  10. cinderellaseyes

    cinderellaseyes Porcelain Heart

    Joined:
    Sep 23, 2021
    Threads:
    2
    Messages:
    8
    Likes Received:
    5
  11. pudang

    pudang Member

    Joined:
    Jul 9, 2020
    Threads:
    1
    Messages:
    39
    Likes Received:
    96
    thanks
     
  12. nobreyn1912

    nobreyn1912 Active Member

    Joined:
    Aug 6, 2017
    Threads:
    0
    Messages:
    280
    Likes Received:
    36
  13. polly

    polly Member

    Joined:
    Aug 18, 2020
    Threads:
    0
    Messages:
    163
    Likes Received:
    14
    Thanks
     
  14. MCTR

    MCTR Active Member

    Joined:
    Feb 23, 2014
    Threads:
    8
    Messages:
    380
    Likes Received:
    100
    Thanks
     
  15. multimediafm

    multimediafm Well-Known Member V . I . P. Collector Donor

    Joined:
    Mar 27, 2014
    Threads:
    47
    Messages:
    24,819
    Likes Received:
    3,905
  16. ucanttouchthis0

    ucanttouchthis0 New Member

    Joined:
    May 30, 2022
    Threads:
    0
    Messages:
    10
    Likes Received:
    1
  17. limonato

    limonato Well-Known Member

    Joined:
    Dec 1, 2014
    Threads:
    5
    Messages:
    1,939
    Likes Received:
    110
    thanks
     
  18. kahraman

    kahraman Member

    Joined:
    Aug 8, 2022
    Threads:
    0
    Messages:
    42
    Likes Received:
    0
    thank you
     
  19. mrperfect

    mrperfect New Member

    Joined:
    Jul 22, 2023
    Threads:
    0
    Messages:
    2
    Likes Received:
    0