æspa (aespa) - Forever (Bugs 4K Rip + FLAC + 60FPS)

Discussion in 'Music Videos' started by kht, Feb 5, 2021.

  1. kht

    kht Well-Known Member

    Joined:
    Sep 30, 2020
    Messages:
    235
    Likes Received:
    441
    24FPS

    Size: 1006MB
    Resolution: 3840x2160@24p
    Container: MP4
    Video codec: H265 (libx265), 26.6Mb/s
    Audio codec: FLAC (ffmpeg), 16-bit, 44.1kHz

    [​IMG]

    Code:
    Format                      : MPEG-4
    Format profile              : Base Media
    Codec ID                    : isom (isom/iso2/mp41)
    File size                   : 1 006 MiB
    Duration                    : 5 min 6 s
    Overall bit rate mode       : Variable
    Overall bit rate            : 27.6 Mb/s
    Video
    ID                          : 1
    Format                      : HEVC
    Format/Info                 : High Efficiency Video Coding
    Format profile              : Main@L5.1@Main
    Codec ID                    : hev1
    Codec ID/Info               : High Efficiency Video Coding
    Duration                    : 5 min 6 s
    Bit rate                    : 26.6 Mb/s
    Width                       : 3 840 pixels
    Height                      : 2 160 pixels
    Display aspect ratio        : 16:9
    Frame rate mode             : Constant
    Frame rate                  : 23.976 (24000/1001) FPS
    Color space                 : YUV
    Chroma subsampling          : 4:2:0
    Bit depth                   : 8 bits
    Scan type                   : Progressive
    Bits/(Pixel*Frame)          : 0.134
    Stream size                 : 969 MiB (96%)
    Writing library             : x265 3.4+32-b24459657:[Windows][GCC 10.2.0][64 bit] 8bit+10bit+12bit
    Encoding settings           : cpuid=1111039 / frame-threads=2 / numa-pools=4 / wpp / no-pmode / no-pme / no-psnr / no-ssim / log-level=2 / input-csp=1 / input-res=3840x2160 / interlace=0 / total-frames=0 / level-idc=0 / high-tier=0 / uhd-bd=0 / ref=5 / no-allow-non-conformance / no-repeat-headers / annexb / no-aud / no-hrd / info / hash=0 / no-temporal-layers / open-gop / min-keyint=23 / keyint=250 / gop-lookahead=0 / bframes=7 / b-adapt=2 / b-pyramid / bframe-bias=0 / rc-lookahead=40 / lookahead-slices=4 / scenecut=40 / hist-scenecut=0 / radl=0 / no-splice / no-intra-refresh / ctu=64 / min-cu-size=8 / no-rect / no-amp / max-tu-size=32 / tu-inter-depth=1 / tu-intra-depth=1 / limit-tu=0 / rdoq-level=0 / dynamic-rd=0.00 / no-ssim-rd / signhide / no-tskip / nr-intra=0 / nr-inter=0 / no-constrained-intra / strong-intra-smoothing / max-merge=3 / limit-refs=1 / no-limit-modes / me=1 / subme=2 / merange=57 / temporal-mvp / no-frame-dup / no-hme / weightp / no-weightb / no-analyze-src-pics / deblock=0:0 / sao / no-sao-non-deblock / rd=3 / selective-sao=4 / early-skip / rskip / no-fast-intra / no-tskip-fast / no-cu-lossless / b-intra / no-splitrd-skip / rdpenalty=0 / psy-rd=2.00 / psy-rdoq=0.00 / no-rd-refine / no-lossless / cbqpoffs=0 / crqpoffs=0 / rc=abr / bitrate=26800 / qcomp=0.60 / qpstep=4 / stats-write=0 / stats-read=2 / cplxblur=20.0 / qblur=0.5 / vbv-maxrate=33500 / vbv-bufsize=33500 / vbv-init=0.8 / min-vbv-fullness=50.0 / max-vbv-fullness=80.0 / ipratio=1.40 / pbratio=1.30 / aq-mode=2 / aq-strength=1.00 / cutree / zone-count=0 / no-strict-cbr / qg-size=32 / no-rc-grain / qpmax=69 / qpmin=0 / no-const-vbv / sar=1 / overscan=0 / videoformat=5 / range=0 / colorprim=1 / transfer=1 / colormatrix=1 / chromaloc=0 / display-window=0 / cll=0,0 / min-luma=0 / max-luma=255 / log2-max-poc-lsb=8 / vui-timing-info / vui-hrd-info / slices=1 / no-opt-qp-pps / no-opt-ref-list-length-pps / no-multi-pass-opt-rps / scenecut-bias=0.05 / hist-threshold=0.03 / no-opt-cu-delta-qp / no-aq-motion / no-hdr10 / no-hdr10-opt / no-dhdr10-opt / no-idr-recovery-sei / analysis-reuse-level=0 / analysis-save-reuse-level=0 / analysis-load-reuse-level=0 / scale-factor=0 / refine-intra=0 / refine-inter=0 / refine-mv=1 / refine-ctu-distortion=0 / no-limit-sao / ctu-info=0 / no-lowpass-dct / refine-analysis-type=0 / copy-pic=1 / max-ausize-factor=1.0 / no-dynamic-refine / no-single-sei / no-hevc-aq / no-svt / no-field / qp-adaptation-range=1.00 / no-scenecut-aware-qpconformance-window-offsets / right=0 / bottom=0 / decoder-max-rate=0 / no-vbv-live-multi-pass
    Color range                 : Limited
    Color primaries             : BT.709
    Transfer characteristics    : BT.709
    Matrix coefficients         : BT.709
    Codec configuration box     : hvcC
    Audio
    ID                          : 2
    Format                      : fLaC
    Codec ID                    : fLaC
    Duration                    : 4 min 58 s
    Duration_LastFrame          : -64 ms
    Bit rate mode               : Variable
    Bit rate                    : 1 024 kb/s
    Stream size                 : 36.4 MiB (4%)
    Default                     : Yes
    Alternate group             : 1
    
    

    60FPS

    Size: 1395MB
    Resolution: 3840x2160@60p
    Container: MKV
    Video codec: H265 (HEVC_QSV), 37.2Mb/s
    Audio codec: FLAC, 16-bit/44.1kHz

    [​IMG]

    Code:
    Format                      : Matroska
    Format version              : Version 4
    File size                   : 1.36 GiB
    Duration                    : 5 min 5 s
    Overall bit rate mode       : Variable
    Overall bit rate            : 38.2 Mb/s
    Encoded date                : UTC 2021-02-25 08:19:04
    Writing application         : mkvmerge v51.0.0 ('I Wish') 64-bit
    Writing library             : libebml v1.4.0 + libmatroska v1.6.2
    Encoding Gui                : Hybrid 2020.12.13.1
    
    Video
    ID                          : 1
    Format                      : HEVC
    Format/Info                 : High Efficiency Video Coding
    Format profile              : Main@L5.1@Main
    Codec ID                    : V_MPEGH/ISO/HEVC
    Duration                    : 5 min 5 s
    Bit rate                    : 37.2 Mb/s
    Width                       : 3 840 pixels
    Height                      : 2 160 pixels
    Display aspect ratio        : 16:9
    Frame rate mode             : Constant
    Frame rate                  : 60.000 FPS
    Color space                 : YUV
    Chroma subsampling          : 4:2:0
    Bit depth                   : 8 bits
    Bits/(Pixel*Frame)          : 0.075
    Stream size                 : 1.33 GiB (97%)
    Title                       : Core Media Video
    Default                     : Yes
    Forced                      : Yes
    Color range                 : Limited
    Matrix coefficients         : BT.709
    
    Audio
    ID                          : 2
    Format                      : FLAC
    Format/Info                 : Free Lossless Audio Codec
    Codec ID                    : A_FLAC
    Duration                    : 4 min 58 s
    Bit rate mode               : Variable
    Bit rate                    : 1 024 kb/s
    Channel(s)                  : 2 channels
    Channel layout              : L R
    Sampling rate               : 44.1 kHz
    Frame rate                  : 10.769 FPS (4095 SPF)
    Bit depth                   : 16 bits
    Compression mode            : Lossless
    Stream size                 : 36.4 MiB (3%)
    Writing library             : Lavf58.65.100
    Default                     : Yes
    Forced                      : No
    
    

    Hidden Content:
    You must either reply or click 'Like' to see the hidden information contained here.
     
    Last edited: May 10, 2021 at 12:28 AM
    ZeniLSM, salinda, Viitrex and 7 others like this.
  2. Loading...


  3. Jesus Miguel Rivero

    Jesus Miguel Rivero Well-Known Member

    Joined:
    Jul 9, 2015
    Messages:
    3,375
    Likes Received:
    200
  4. SheldonPorto

    SheldonPorto Member

    Joined:
    Jul 21, 2020
    Messages:
    335
    Likes Received:
    10
    thankyuu
     
  5. popoy13

    popoy13 Active Member

    Joined:
    Dec 5, 2018
    Messages:
    297
    Likes Received:
    35
    Yaaaay... Thank you my friend... love this:love::girl::oops::)
     
  6. kage111

    kage111 Member

    Joined:
    Dec 1, 2018
    Messages:
    30
    Likes Received:
    0
    Thanks!
     
  7. rhea

    rhea Well-Known Member

    Joined:
    Jan 6, 2014
    Messages:
    11,692
    Likes Received:
    2,264
    thank you
     
  8. KNK

    KNK New Member

    Joined:
    Nov 18, 2020
    Messages:
    29
    Likes Received:
    0
    Thank you For This :)
     
  9. fisherTW

    fisherTW Well-Known Member

    Joined:
    Dec 3, 2014
    Messages:
    2,210
    Likes Received:
    828
    Thank you.:)
     
  10. kht

    kht Well-Known Member

    Joined:
    Sep 30, 2020
    Messages:
    235
    Likes Received:
    441
    Changed from Naver rip to Bugs rip included with FLAC audio
     
  11. Lucasbeach

    Lucasbeach Member

    Joined:
    May 2, 2019
    Messages:
    107
    Likes Received:
    3
    thanks!!
     
  12. Viitrex

    Viitrex Active Member

    Joined:
    Mar 26, 2016
    Messages:
    925
    Likes Received:
    41
    thanks
     
  13. Ghostar

    Ghostar Member

    Joined:
    Jun 30, 2019
    Messages:
    388
    Likes Received:
    6
    Thanks
     
  14. liyongqin

    liyongqin New Member

    Joined:
    Mar 6, 2021
    Messages:
    10
    Likes Received:
    0
  15. kht

    kht Well-Known Member

    Joined:
    Sep 30, 2020
    Messages:
    235
    Likes Received:
    441
    Soon to add 60FPS version
     
  16. kht

    kht Well-Known Member

    Joined:
    Sep 30, 2020
    Messages:
    235
    Likes Received:
    441
    Added 60FPS version
     
  17. jenzalabim

    jenzalabim Member

    Joined:
    May 29, 2020
    Messages:
    53
    Likes Received:
    1
    thank you
     
  18. salinda

    salinda Well-Known Member

    Joined:
    Nov 14, 2018
    Messages:
    1,848
    Likes Received:
    36
    thank you
     
  19. aaliyah2009

    aaliyah2009 Well-Known Member

    Joined:
    Feb 2, 2017
    Messages:
    2,606
    Likes Received:
    171
    thank you
     
  20. jamesplanet

    jamesplanet Well-Known Member

    Joined:
    Oct 12, 2020
    Messages:
    1,950
    Likes Received:
    121
    thank you
     
  21. ZeniLSM

    ZeniLSM Member

    Joined:
    Jun 28, 2020
    Messages:
    64
    Likes Received:
    1
    Woaa thank you