MOVIE ZOMBIES 2 (2020) 720p 1080p AMZN WEB-DL DDP5.1 H.264-LAZY

Discussion in 'Cinema Center' started by RuneMagle, Feb 21, 2020.

  1. RuneMagle

    RuneMagle Well-Known Member

    Joined:
    Apr 5, 2016
    Messages:
    68
    Likes Received:
    310
    ZOMBIES 2:[​IMG]

    General
    Unique ID : 283378876614188641927669453006230141670 (0xD530C95205A968F2CC25829193E63AE6)
    Complete name : Zombies.2.2020.720p.AMZN.WEB-DL.DDP5.1.H.264-LAZY.mkv
    Format : Matroska
    Format version : Version 4
    File size : 1.89 GiB
    Duration : 1 h 23 min
    Overall bit rate : 3 225 kb/s
    Encoded date : UTC 2020-02-15 09:47:27
    Writing application : mkvmerge v43.0.0 ('The Quartermaster') 64-bit
    Writing library : libebml v1.3.10 + libmatroska v1.5.2

    Video
    ID : 1
    Format : AVC
    Format/Info : Advanced Video Codec
    Format profile : High@L3.1
    Format settings : CABAC / 5 Ref Frames
    Format settings, CABAC : Yes
    Format settings, RefFrames : 5 frames
    Codec ID : V_MPEG4/ISO/AVC
    Duration : 1 h 23 min
    Bit rate : 2 583 kb/s
    Width : 1 280 pixels
    Height : 528 pixels
    Display aspect ratio : 2.40:1
    Frame rate mode : Constant
    Frame rate : 23.976 (24000/1001) FPS
    Color space : YUV
    Chroma subsampling : 4:2:0
    Bit depth : 8 bits
    Scan type : Progressive
    Bits/(Pixel*Frame) : 0.159
    Stream size : 1.51 GiB (80%)
    Language : English
    Default : Yes
    Forced : No
    Color range : Limited
    Color primaries : BT.709
    Transfer characteristics : BT.709
    Matrix coefficients : BT.709

    Audio
    ID : 2
    Format : E-AC-3
    Format/Info : Enhanced AC-3
    Commercial name : Dolby Digital Plus
    Codec ID : A_EAC3
    Duration : 1 h 23 min
    Bit rate mode : Constant
    Bit rate : 640 kb/s
    Channel(s) : 6 channels
    Channel layout : L R C LFE Ls Rs
    Sampling rate : 48.0 kHz
    Frame rate : 31.250 FPS (1536 SPF)
    Compression mode : Lossy
    Stream size : 384 MiB (20%)
    Language : English
    Service kind : Complete Main
    Default : Yes
    Forced : No

    Text
    ID : 3
    Format : UTF-8
    Codec ID : S_TEXT/UTF8
    Codec ID/Info : UTF-8 Plain Text
    Duration : 1 h 23 min
    Bit rate : 85 b/s
    Count of elements : 1906
    Stream size : 52.3 KiB (0%)
    Language : English
    Default : No
    Forced : No
    Screenshots:
    [​IMG]
    Hidden Content:
    You must either reply or click 'Like' to see the hidden information contained here.
    General
    Unique ID : 240707780230973643212605267361546098170 (0xB516A1D6820857F46789A77886C7D5FA)
    Complete name : ZOMBIES.2.2020.1080p.AMZN.WEB-DL.DDP5.1.H.264-LAZY.mkv
    Format : Matroska
    Format version : Version 4
    File size : 5.47 GiB
    Duration : 1 h 23 min
    Overall bit rate : 9 345 kb/s
    Encoded date : UTC 2020-02-15 09:27:10
    Writing application : mkvmerge v43.0.0 ('The Quartermaster') 64-bit
    Writing library : libebml v1.3.10 + libmatroska v1.5.2

    Video
    ID : 1
    Format : AVC
    Format/Info : Advanced Video Codec
    Format profile : High@L4
    Format settings : CABAC / 4 Ref Frames
    Format settings, CABAC : Yes
    Format settings, RefFrames : 4 frames
    Codec ID : V_MPEG4/ISO/AVC
    Duration : 1 h 23 min
    Bit rate mode : Constant
    Bit rate : 8 703 kb/s
    Nominal bit rate : 10 000 kb/s
    Width : 1 920 pixels
    Height : 800 pixels
    Display aspect ratio : 2.40:1
    Frame rate mode : Constant
    Frame rate : 23.976 (24000/1001) FPS
    Color space : YUV
    Chroma subsampling : 4:2:0
    Bit depth : 8 bits
    Scan type : Progressive
    Bits/(Pixel*Frame) : 0.236
    Stream size : 5.10 GiB (93%)
    Language : English
    Default : Yes
    Forced : No
    Color range : Limited
    Color primaries : BT.709
    Transfer characteristics : BT.709
    Matrix coefficients : BT.709

    Audio
    ID : 2
    Format : E-AC-3
    Format/Info : Enhanced AC-3
    Commercial name : Dolby Digital Plus
    Codec ID : A_EAC3
    Duration : 1 h 23 min
    Bit rate mode : Constant
    Bit rate : 640 kb/s
    Channel(s) : 6 channels
    Channel layout : L R C LFE Ls Rs
    Sampling rate : 48.0 kHz
    Frame rate : 31.250 FPS (1536 SPF)
    Compression mode : Lossy
    Stream size : 384 MiB (7%)
    Language : English
    Service kind : Complete Main
    Default : Yes
    Forced : No

    Text
    ID : 3
    Format : UTF-8
    Codec ID : S_TEXT/UTF8
    Codec ID/Info : UTF-8 Plain Text
    Duration : 1 h 23 min
    Bit rate : 85 b/s
    Count of elements : 1906
    Stream size : 52.3 KiB (0%)
    Language : English
    Default : No
    Forced : No

    Screenshots:
    [​IMG]
    Hidden Content:
    You must either reply or click 'Like' to see the hidden information contained here.
     
    Last edited: Feb 21, 2020
    bosmans, ahsanur, tkbear and 8 others like this.
  2. Loading...


  3. Codsworth

    Codsworth Member

    Joined:
    Dec 22, 2019
    Messages:
    191
    Likes Received:
    6
    I think my kids will love this, thanks
     
    RuneMagle likes this.
  4. kpopanimefan

    kpopanimefan Member

    Joined:
    Aug 20, 2019
    Messages:
    257
    Likes Received:
    20
    thanks
     
    RuneMagle likes this.
  5. squidw0rd

    squidw0rd Member Donor

    Joined:
    Mar 23, 2019
    Messages:
    82
    Likes Received:
    2
    Thank you
     
    RuneMagle likes this.
  6. dragged123

    dragged123 Member

    Joined:
    Dec 20, 2016
    Messages:
    105
    Likes Received:
    7
    thanks
     
    RuneMagle likes this.
  7. tkbear

    tkbear Member

    Joined:
    Jun 9, 2017
    Messages:
    60
    Likes Received:
    6
    thanks
     
    RuneMagle likes this.
  8. DDug

    DDug New Member

    Joined:
    Jun 10, 2019
    Messages:
    29
    Likes Received:
    1
    Thanks
     
    RuneMagle likes this.
  9. Larrybob18

    Larrybob18 Member

    Joined:
    Jun 24, 2015
    Messages:
    48
    Likes Received:
    2
    Thanks
     
    RuneMagle likes this.