Zendaya & Bella Thorne - Something to Dance For & TTYLXOX (DISNEYHD-720p-DD5.1-TrollHD)

Discussion in 'DISNEY HD' started by rgf72k, Oct 19, 2013.

  1. rgf72k

    rgf72k Founder Staff Member AdMiN Capper Uploader

    Joined:
    Oct 1, 2013
    Messages:
    1,152
    Likes Received:
    16,920
    [​IMG]

    Code:
          Complete name : (Music Video) Zendaya & Bella Thorne - Something to Dance For & TTYLXOX 720p HDTV DD5.1 MPEG2-TrollHD.ts
          Format : MPEG-TS
          File size : 353 MiB
          Duration : 3mn 12s
          Overall bit rate mode : Variable
          Overall bit rate : 15.4 Mbps
      Video #4096
          ID : 4096 (0x1000)
          Menu ID : 1 (0x1)
          Format : MPEG Video
          Commercial name : HDV 720p
          Format version : Version 2
          Format profile : [email protected]
          Format settings, BVOP : Yes
          Format settings, Matrix : Custom
          Format settings, GOP : Variable
          Codec ID : 2
          Duration : 3mn 12s
          Bit rate mode : Variable
          Bit rate : 14.2 Mbps
          Maximum bit rate : 18.0 Mbps
          Width : 1 280 pixels
          Height : 720 pixels
          Display aspect ratio : 16:9
          Frame rate : 59.940 fps
          Color space : YUV
          Chroma subsampling : 4:2:0
          Bit depth : 8 bits
          Scan type : Progressive
          Compression mode : Lossy
          Bits/(Pixel*Frame) : 0.257
          Time code of first frame : 00:00:00;00
          Time code source : Group of pictures header
          Stream size : 327 MiB (92%)
      Audio #4097
          ID : 4097 (0x1001)
          Menu ID : 1 (0x1)
          Format : AC-3
          Format/Info : Audio Coding 3
          Mode extension : CM (complete main)
          Format settings, Endianness : Big
          Codec ID : 129
          Duration : 3mn 12s
          Bit rate mode : Constant
          Bit rate : 384 Kbps
          Channel(s) : 6 channels
          Channel positions : Front: L C R, Side: L R, LFE
          Sampling rate : 48.0 KHz
          Bit depth : 16 bits
          Compression mode : Lossy
          Stream size : 8.83 MiB (2%)
          Language : English


    Download:
    Hidden Content:
    You must either reply or click 'Like' to see the hidden information contained here.


    Password: sharemania.net


    Capper: TrollHD
     
  2. Loading...


  3. rhea

    rhea Well-Known Member

    Joined:
    Jan 6, 2014
    Messages:
    7,152
    Likes Received:
    799
    thank you! :)
     
  4. Ank-hell

    Ank-hell nɪhɪl V . I . P.

    Joined:
    Dec 21, 2013
    Messages:
    1,488
    Likes Received:
    6,237
    Thks:happy:
     
  5. KallumLavigne

    KallumLavigne Well-Known Member

    Joined:
    Nov 18, 2013
    Messages:
    677
    Likes Received:
    1,320
    thanks so much <3
     
  6. KallumLavigne

    KallumLavigne Well-Known Member

    Joined:
    Nov 18, 2013
    Messages:
    677
    Likes Received:
    1,320
    says its corrupt when trying to extract it
     
  7. bhjfghcfgh

    bhjfghcfgh Member

    Joined:
    Dec 27, 2014
    Messages:
    36
    Likes Received:
    0
    THAK YOUUUUU
     
  8. Trop1cal

    Trop1cal Member

    Joined:
    Feb 5, 2015
    Messages:
    559
    Likes Received:
    12
    thank you
     
  9. santa321

    santa321 Well-Known Member

    Joined:
    Dec 7, 2013
    Messages:
    1,512
    Likes Received:
    55
    thank you
     
  10. Zatimi

    Zatimi Active Member

    Joined:
    Aug 27, 2014
    Messages:
    770
    Likes Received:
    156
    thank you very much
     
  11. jayananda

    jayananda Active Member

    Joined:
    Jan 14, 2015
    Messages:
    608
    Likes Received:
    191
    Thank You
     
  12. SelinaAnt

    SelinaAnt New Member

    Joined:
    Jan 19, 2017
    Messages:
    11
    Likes Received:
    1
    Thanks!
     
  13. lovegungun

    lovegungun Member

    Joined:
    Dec 8, 2017
    Messages:
    77
    Likes Received:
    5
  14. VIVAfan1991

    VIVAfan1991 Active Member

    Joined:
    Jan 11, 2018
    Messages:
    192
    Likes Received:
    28