Zedd Feat. Selena Gomez - I Want You To Know (MUCHHD-1080i-DD2.0-AmazonBoy)

Discussion in 'MUCH HD' started by DETOX, Jul 6, 2015.

  1. DETOX

    DETOX Well-Known Member V . I . P. Uploader

    Joined:
    Feb 20, 2014
    Messages:
    2,584
    Likes Received:
    12,102

    [​IMG]


    Format : MPEG-TS
    File size : 825 MiB
    Duration : 4mn 1s
    Overall bit rate mode : Variable
    Overall bit rate : 28.7 Mbps

    Video
    ID : 256 (0x100)
    Menu ID : 1 (0x1)
    Format : MPEG Video
    Format version : Version 2
    Format profile : [email protected]
    Format settings, BVOP : No
    Format settings, Matrix : Custom
    Format settings, GOP : N=1
    Format settings, picture structure : Frame
    Codec ID : 2
    Duration : 4mn 1s
    Bit rate mode : Variable
    Bit rate : 26.8 Mbps
    Maximum bit rate : 32.0 Mbps
    Width : 1 920 pixels
    Height : 1 080 pixels
    Display aspect ratio : 16:9
    Frame rate : 29.970 fps
    Standard : Component
    Color space : YUV
    Chroma subsampling : 4:2:0
    Bit depth : 8 bits
    Scan type : Interlaced
    Scan order : Top Field First
    Compression mode : Lossy
    Bits/(Pixel*Frame) : 0.431
    Time code of first frame : 00:00:00:00
    Time code source : Group of pictures header
    GOP, Open/Closed : Closed
    Stream size : 771 MiB (93%)
    Writing library : (dvd5: Mar 19 2015)
    Color primaries : BT.709
    Transfer characteristics : BT.709
    Matrix coefficients : BT.709

    Audio
    ID : 257 (0x101)
    Menu ID : 1 (0x1)
    Format : AC-3
    Format/Info : Audio Coding 3
    Mode extension : CM (complete main)
    Format settings, Endianness : Big
    Codec ID : 129
    Duration : 4mn 1s
    Bit rate mode : Constant
    Bit rate : 448 Kbps
    Channel(s) : 2 channels
    Channel positions : Front: L R
    Sampling rate : 48.0 KHz
    Bit depth : 16 bits
    Compression mode : Lossy
    Stream size : 12.9 MiB (2%)

    Hidden Content:
    You must reply before you can see the hidden data contained here.
     
    Last edited by a moderator: Oct 22, 2015
    Dave and Dfrazzer like this.
  2. Loading...


  3. koko_love

    koko_love Member

    Joined:
    Jun 3, 2015
    Messages:
    258
    Likes Received:
    9
    Thank you :)
     
  4. Dfrazzer

    Dfrazzer Super Moderator Staff Member Super Moderator Capper V . I . P. Donor

    Joined:
    Nov 4, 2013
    Messages:
    3,820
    Likes Received:
    7,485
    Thanks I love this video.
     
  5. conaughey

    conaughey Active Member

    Joined:
    Feb 3, 2014
    Messages:
    197
    Likes Received:
    58
    Thanks mate very much
     
  6. santa321

    santa321 Active Member

    Joined:
    Dec 7, 2013
    Messages:
    1,153
    Likes Received:
    21
    thank you
     
  7. JasonKay

    JasonKay Member

    Joined:
    Apr 24, 2015
    Messages:
    43
    Likes Received:
    0
    great video. thanks
     
  8. Dave

    Dave Active Member

    Joined:
    Jun 2, 2015
    Messages:
    475
    Likes Received:
    248
    thank u
     
  9. MCTR

    MCTR Member

    Joined:
    Feb 23, 2014
    Messages:
    275
    Likes Received:
    22
    THANK YOU
     
  10. nolynexor88

    nolynexor88 Member

    Joined:
    Sep 29, 2015
    Messages:
    761
    Likes Received:
    23
     
  11. mg2244

    mg2244 Member

    Joined:
    Aug 12, 2014
    Messages:
    83
    Likes Received:
    2
    Thanks mate very much
     
  12. Shaki

    Shaki Member

    Joined:
    Mar 13, 2016
    Messages:
    280
    Likes Received:
    1
    عاللللللللللللللل
     
  13. Shaki

    Shaki Member

    Joined:
    Mar 13, 2016
    Messages:
    280
    Likes Received:
    1
    عاللللللللللللللل
     
  14. Cyberbob

    Cyberbob Member

    Joined:
    May 27, 2016
    Messages:
    64
    Likes Received:
    1
    thanks....
     
  15. BinhTVT

    BinhTVT Member

    Joined:
    Jun 30, 2015
    Messages:
    175
    Likes Received:
    3
    thank u
     
  16. Blunder

    Blunder Member

    Joined:
    Mar 27, 2016
    Messages:
    328
    Likes Received:
    3
    thanks
     
  17. revilo18

    revilo18 Well-Known Member

    Joined:
    May 26, 2016
    Messages:
    1,255
    Likes Received:
    50
    THANIIIO
     
  18. revilo18

    revilo18 Well-Known Member

    Joined:
    May 26, 2016
    Messages:
    1,255
    Likes Received:
    50
    THANIIIO
     
  19. hanshermann

    hanshermann Active Member

    Joined:
    Aug 24, 2016
    Messages:
    1,217
    Likes Received:
    1
    wahts taht