ZAYN - PILLOWTALK (VEVOtv HDTV-1080i 26Mbps) Danixat-HDMania

Discussion in 'VEVOtv' started by danixat, Mar 24, 2016.

  1. danixat

    danixat Katycat ^-^ Capper V . I . P. Donor

    Joined:
    Feb 23, 2014
    Messages:
    1,199
    Likes Received:
    7,410
    [​IMG]
    [​IMG]
    [​IMG]
    [​IMG]
    Code:
    General
    ID                             : 1 (0x1)
    Complete name                  : K:\ZAYN - PILLOWTALK (VEVOtv HDTV-1080i 26Mbps) Danixat-HDMania.ts
    Format                         : MPEG-TS
    File size                      : 658 MiB
    Duration                       : 3mn 26s
    Overall bit rate mode          : Variable
    Overall bit rate               : 26.7 Mbps
    
    Video
    ID                             : 100 (0x64)
    Menu ID                        : 2 (0x2)
    Format                         : AVC
    Format/Info                    : Advanced Video Codec
    Format profile                 : High@L4.0
    Format settings, CABAC         : Yes
    Format settings, ReFrames      : 2 frames
    Codec ID                       : 27
    Duration                       : 3mn 26s
    Bit rate mode                  : Variable
    Bit rate                       : 25.2 Mbps
    Maximum bit rate               : 15.0 Mbps
    Width                          : 1 920 pixels
    Height                         : 1 080 pixels
    Display aspect ratio           : 16:9
    Frame rate                     : 25.000 fps
    Color space                    : YUV
    Chroma subsampling             : 4:2:0
    Bit depth                      : 8 bits
    Scan type                      : MBAFF
    Bits/(Pixel*Frame)             : 0.486
    Stream size                    : 620 MiB (94%)
    
    Audio
    ID                             : 101 (0x65)
    Menu ID                        : 2 (0x2)
    Format                         : AAC
    Format/Info                    : Advanced Audio Codec
    Format version                 : Version 4
    Format profile                 : LC
    Muxing mode                    : ADTS
    Codec ID                       : 15
    Duration                       : 3mn 26s
    Bit rate mode                  : Variable
    Bit rate                       : 220 Kbps
    Channel(s)                     : 2 channels
    Channel positions              : Front: L R
    Sampling rate                  : 48.0 KHz
    Compression mode               : Lossy
    Delay relative to video        : -8ms
    Stream size                    : 5.41 MiB (1%)

    [​IMG]

    Download:
    Hidden Content:
    You must either reply or click 'Like' to see the hidden information contained here.
    CAPPED BY ME :victory:
     
  2. nickiexclusive

    nickiexclusive Video Maniac V . I . P. Uploader

    Joined:
    Sep 23, 2014
    Messages:
    2,409
    Likes Received:
    10,831
    VEVO TV ? What is this?
     
  3. danixat

    danixat Katycat ^-^ Capper V . I . P. Donor

    Joined:
    Feb 23, 2014
    Messages:
    1,199
    Likes Received:
    7,410
    it's an IPTV channel (is a streaming channel via internet and not via Satellite or Antenna) :victory:
    There are 3 channels:
    VEVO HD1
    VEVO HD2
    VEVO HD3
     
  4. dgnio

    dgnio Well-Known Member

    Joined:
    Jul 7, 2014
    Messages:
    1,897
    Likes Received:
    498
    its fantastic...can u plz get new music videos r'n'b hiphop..pop..and country in this quality plz??
     
    danixat likes this.
  5. meg

    meg Member

    Joined:
    Mar 21, 2016
    Messages:
    166
    Likes Received:
    10
    love love love OMG thanks
     
  6. mario

    mario Well-Known Member

    Joined:
    Oct 7, 2013
    Messages:
    503
    Likes Received:
    937
    thank you
     
  7. danixat

    danixat Katycat ^-^ Capper V . I . P. Donor

    Joined:
    Feb 23, 2014
    Messages:
    1,199
    Likes Received:
    7,410
    Yes sure! :super::victory:
     
  8. Dreamer

    Dreamer Lana Del Rey ♥ Halsey Capper V . I . P. Uploader

    Joined:
    Dec 4, 2014
    Messages:
    2,955
    Likes Received:
    4,875
    But quality isn't great on screenshots. Unfortunatelly high bitrate≠high quality. o_O
    Anyway I should download to check it. :)
     
  9. danixat

    danixat Katycat ^-^ Capper V . I . P. Donor

    Joined:
    Feb 23, 2014
    Messages:
    1,199
    Likes Received:
    7,410
    Hmm, I actually think that VEVOtv shares videos in 1080i like every music channel (mtv, vh1, m6, etc...) and when the decoder captured the videos, it increased the bitrate... I'll try to see if there is an option to edit bitrate, quality, etc...
     
    Last edited: Mar 26, 2016
  10. aturner18

    aturner18 Well-Known Member

    Joined:
    Oct 2, 2014
    Messages:
    1,398
    Likes Received:
    133
    loving or fucking?
     
  11. Aiden Boy

    Aiden Boy Member

    Joined:
    Feb 23, 2016
    Messages:
    167
    Likes Received:
    6
  12. Q8Diesel

    Q8Diesel Member

    Joined:
    Apr 2, 2016
    Messages:
    125
    Likes Received:
    0
    thaaaaaanx
     
  13. frank69

    frank69 New Member

    Joined:
    May 13, 2016
    Messages:
    25
    Likes Received:
    0
    thank you
     
  14. slill

    slill Active Member

    Joined:
    Jul 25, 2014
    Messages:
    1,097
    Likes Received:
    16
    thanks
     
  15. miguelmr87

    miguelmr87 Well-Known Member

    Joined:
    Dec 20, 2013
    Messages:
    1,061
    Likes Received:
    232
    like thanks a lot
     
  16. golftae

    golftae Well-Known Member

    Joined:
    May 14, 2014
    Messages:
    1,194
    Likes Received:
    585
    Thank you
     
  17. cesar josep liuses yesus

    cesar josep liuses yesus Member

    Joined:
    Dec 22, 2016
    Messages:
    122
    Likes Received:
    1
  18. seregil

    seregil Member

    Joined:
    Sep 5, 2014
    Messages:
    110
    Likes Received:
    1
    thanks
     
  19. clayo

    clayo Member

    Joined:
    Aug 25, 2017
    Messages:
    264
    Likes Received:
    14
    Thank You