Zayn - Pillowtalk (MULTISHOW.HD.1080i.DD5.1).-Crusha

Discussion in 'MULTISHOW HD' started by Crusha, Mar 4, 2016.

  1. Crusha

    Crusha Well-Known Member Capper V . I . P.

    Joined:
    Oct 15, 2014
    Messages:
    2,355
    Likes Received:
    2,522
    [​IMG] [​IMG] [​IMG]

    Mediainfo
    General
    ID : 1 (0x1)
    Complete name : Zayn - Pillowtalk (MULTISHOW.HD.1080i.DD5.1).-Crusha.ts
    Format : MPEG-TS
    File size : 81.0 MiB
    Duration : 3mn 24s
    Overall bit rate mode : Variable
    Overall bit rate : 3 315 Kbps

    Video
    ID : 2593 (0xA21)
    Menu ID : 2542 (0x9EE)
    Format : AVC
    Format/Info : Advanced Video Codec
    Format profile : [email protected]
    Format settings, CABAC : Yes
    Format settings, ReFrames : 4 frames
    Format settings, GOP : M=8, N=32
    Codec ID : 27
    Duration : 3mn 24s
    Bit rate : 2 764 Kbps
    Width : 1 920 pixels
    Height : 1 080 pixels
    Display aspect ratio : 16:9
    Frame rate : 29.970 fps
    Standard : Component
    Color space : YUV
    Chroma subsampling : 4:2:0
    Bit depth : 8 bits
    Scan type : MBAFF
    Scan order : Top Field First
    Bits/(Pixel*Frame) : 0.044
    Stream size : 67.4 MiB (83%)
    Color range : Limited
    Color primaries : BT.709
    Transfer characteristics : BT.709
    Matrix coefficients : BT.709

    Audio
    ID : 3593 (0xE09)
    Menu ID : 2542 (0x9EE)
    Format : AC-3
    Format/Info : Audio Coding 3
    Mode extension : CM (complete main)
    Format settings, Endianness : Big
    Codec ID : 6
    Duration : 3mn 24s
    Bit rate mode : Constant
    Bit rate : 384 Kbps
    Channel(s) : 6 channels
    Channel positions : Front: L C R, Side: L R, LFE
    Sampling rate : 48.0 KHz
    Bit depth : 16 bits
    Compression mode : Lossy
    Delay relative to video : -66ms
    Stream size : 9.37 MiB (12%)
    Language : Portuguese

    Hidden Content:
    You must reply before you can see the hidden data contained here.
    Password:
    crusha
     
  2. Loading...


  3. Sri Malchik

    Sri Malchik Member

    Joined:
    Jun 6, 2014
    Messages:
    66
    Likes Received:
    2
  4. Nildocp

    Nildocp New Member

    Joined:
    Nov 26, 2016
    Messages:
    5
    Likes Received:
    0
    tks!!
     
  5. chadiedls

    chadiedls New Member

    Joined:
    Mar 3, 2016
    Messages:
    17
    Likes Received:
    2
    Is this live?