Zara Larsson - Lush Life (B&W) 1080p

Discussion in 'OTHERS' started by Dfrazzer, Jan 6, 2017.

  1. Dfrazzer

    Dfrazzer Super Moderator Staff Member Super Moderator Capper V . I . P. Donor

    Joined:
    Nov 4, 2013
    Messages:
    4,469
    Likes Received:
    9,564
    This black & white version has no visual effects and is a different cut.

    [​IMG] [​IMG] [​IMG] [​IMG]

    Code:
    General
    Complete name : D:\Zara Larsson - Lush Life (B&W) 1080p.mov
    Format : MPEG-4
    Format profile : QuickTime
    Codec ID : qt
    File size : 352 MiB
    Duration : 3mn 20s
    Overall bit rate : 14.8 Mbps
    Encoded date : UTC 2015-06-18 10:25:20
    Tagged date : UTC 2015-06-18 10:36:25
    Writing library : Apple QuickTime
    ©TIM : 00:01:06:23
    ©TSC : 25
    ©TSZ : 1
    
    Video
    ID : 1
    Format : AVC
    Format/Info : Advanced Video Codec
    Format profile : [email protected]
    Format settings, CABAC : No
    Format settings, ReFrames : 2 frames
    Format settings, GOP : M=1, N=50
    Codec ID : avc1
    Codec ID/Info : Advanced Video Coding
    Duration : 3mn 20s
    Bit rate : 14.6 Mbps
    Width : 1 920 pixels
    Height : 1 080 pixels
    Display aspect ratio : 16:9
    Frame rate mode : Constant
    Frame rate : 25.000 fps
    Color space : YUV
    Chroma subsampling : 4:2:0
    Bit depth : 8 bits
    Scan type : Progressive
    Bits/(Pixel*Frame) : 0.282
    Stream size : 349 MiB (99%)
    Language : English
    Encoded date : UTC 2015-06-18 10:25:20
    Tagged date : UTC 2015-06-18 10:36:25
    Color range : Limited
    Color primaries : BT.709
    Transfer characteristics : BT.709
    Matrix coefficients : BT.709
    
    Audio
    ID : 2
    Format : AAC
    Format/Info : Advanced Audio Codec
    Format profile : LC
    Codec ID : 40
    Duration : 3mn 20s
    Source duration : 3mn 20s
    Bit rate mode : Constant
    Bit rate : 128 Kbps
    Channel(s) : 2 channels
    Channel positions : Front: L R
    Sampling rate : 48.0 KHz
    Compression mode : Lossy
    Stream size : 3.06 MiB (1%)
    Source stream size : 3.06 MiB (1%)
    Language : English
    Encoded date : UTC 2015-06-18 10:25:20
    Tagged date : UTC 2015-06-18 10:36:25
    
    Other
    ID : 3
    Type : Time code
    Format : QuickTime TC
    Duration : 3mn 20s
    Time code of first frame : 00:01:06:23
    Time code, striped : Yes
    Language : English
    Encoded date : UTC 2015-06-18 10:36:25
    Tagged date : UTC 2015-06-18 10:36:25
    
    Hidden Content:
    You must reply before you can see the hidden data contained here.
    Ripped from the director of photography's Vimeo account.
     
    CELOBRAZiL likes this.
  2. Loading...


  3. CELOBRAZiL

    CELOBRAZiL Well-Known Member Capper V . I . P. Donor

    Joined:
    Oct 2, 2013
    Messages:
    3,390
    Likes Received:
    9,816
    Thank you so much! :)
     
  4. JBy

    JBy Active Member

    Joined:
    Dec 8, 2016
    Messages:
    140
    Likes Received:
    106
    I LOVE THIS SONG, thank youu
     
  5. pedrospear

    pedrospear Active Member

    Joined:
    Aug 21, 2016
    Messages:
    211
    Likes Received:
    27
    thanks
     
  6. desi98

    desi98 New Member

    Joined:
    Dec 26, 2016
    Messages:
    23
    Likes Received:
    3
    thanks
     
  7. just_eddy

    just_eddy New Member

    Joined:
    Jan 17, 2017
    Messages:
    21
    Likes Received:
    1
    thänkmu
     
  8. nofed

    nofed Member

    Joined:
    Oct 24, 2014
    Messages:
    223
    Likes Received:
    5
    thanks
     
  9. daffaz12

    daffaz12 Member

    Joined:
    Dec 25, 2016
    Messages:
    277
    Likes Received:
    6
    Thankss
     
  10. FanofTheStars

    FanofTheStars Active Member

    Joined:
    Feb 11, 2017
    Messages:
    971
    Likes Received:
    78
  11. Joseph

    Joseph Active Member

    Joined:
    Dec 10, 2013
    Messages:
    746
    Likes Received:
    168
    thanks
     
  12. bblake

    bblake Member

    Joined:
    Oct 19, 2016
    Messages:
    41
    Likes Received:
    0
    Thank you
     
  13. Cyberbob

    Cyberbob Member

    Joined:
    May 27, 2016
    Messages:
    238
    Likes Received:
    1
    thanks