Zara Larsson - Ain't My Fault (AAC-Master-1080p-Abdi)

Discussion in 'MASTER & MASTER RIP' started by abdi, Oct 22, 2016.

  1. abdi

    abdi Well-Known Member Uploader

    Joined:
    Sep 23, 2014
    Messages:
    1,597
    Likes Received:
    2,566
    Zara Larsson - Ain't My Fault (AAC-Master-1080p-Abdi)
    [​IMG]
    [​IMG]
    General
    Complete name : C:\Users\unknown\Downloads\Video\Zara Larsson - Ain't My Fault (AAC-Master-1080p-Abdi).mp4
    Format : MPEG-4
    Format profile : Base Media / Version 2
    Codec ID : mp42
    File size : 399 MiB
    Duration : 3mn 43s
    Overall bit rate : 15.0 Mbps
    Encoded date : UTC 2016-10-20 14:57:17
    Tagged date : UTC 2016-10-20 14:57:28

    Video
    ID : 1
    Format : AVC
    Format/Info : Advanced Video Codec
    Format profile : [email protected]
    Format settings, CABAC : No
    Format settings, ReFrames : 2 frames
    Format settings, GOP : M=1, N=50
    Codec ID : avc1
    Codec ID/Info : Advanced Video Coding
    Duration : 3mn 43s
    Bit rate : 14.8 Mbps
    Width : 1 920 pixels
    Height : 1 080 pixels
    Display aspect ratio : 16:9
    Frame rate mode : Constant
    Frame rate : 25.000 fps
    Color space : YUV
    Chroma subsampling : 4:2:0
    Bit depth : 8 bits
    Scan type : Progressive
    Bits/(Pixel*Frame) : 0.285
    Stream size : 393 MiB (98%)
    Language : English
    Encoded date : UTC 2016-10-20 14:57:17
    Tagged date : UTC 2016-10-20 14:57:28
    Color range : Limited
    Color primaries : BT.709
    Transfer characteristics : BT.709
    Matrix coefficients : BT.709

    Audio
    ID : 2
    Format : AAC
    Format/Info : Advanced Audio Codec
    Format profile : LC
    Codec ID : 40
    Duration : 3mn 42s
    Bit rate mode : Constant
    Bit rate : 256 Kbps
    Channel(s) : 2 channels
    Channel positions : Front: L R
    Sampling rate : 48.0 KHz
    Compression mode : Lossy
    Stream size : 6.80 MiB (2%)
    Language : English
    Encoded date : UTC 2016-10-20 14:57:17
    Tagged date : UTC 2016-10-20 14:57:28
    Hidden Content:
    You must reply before you can see the hidden data contained here.
     
  2. Loading...


  3. mov

    mov Well-Known Member

    Joined:
    Aug 29, 2014
    Messages:
    251
    Likes Received:
    338
    Thanks
     
  4. krest

    krest Member

    Joined:
    May 31, 2015
    Messages:
    207
    Likes Received:
    2
    Thanks!!!!!!!!!!!!!
     
  5. pedrospear

    pedrospear Member

    Joined:
    Aug 21, 2016
    Messages:
    89
    Likes Received:
    10
    thanks
     
  6. nkt

    nkt Member

    Joined:
    May 17, 2015
    Messages:
    221
    Likes Received:
    12
    thank you
     
  7. meisam.sch

    meisam.sch Well-Known Member

    Joined:
    Jan 18, 2016
    Messages:
    1,051
    Likes Received:
    40
  8. BetaKsi

    BetaKsi Well-Known Member

    Joined:
    Oct 18, 2015
    Messages:
    677
    Likes Received:
    274
    Thank you))
     
  9. DonWal

    DonWal Well-Known Member

    Joined:
    May 11, 2015
    Messages:
    374
    Likes Received:
    573
    Thank you!
     
  10. Athos

    Athos Active Member

    Joined:
    Dec 28, 2013
    Messages:
    180
    Likes Received:
    83
    thank u
     
  11. kalo

    kalo Member

    Joined:
    May 25, 2015
    Messages:
    286
    Likes Received:
    4
    thanks
     
  12. Eddie Solo

    Eddie Solo Member

    Joined:
    Oct 16, 2013
    Messages:
    293
    Likes Received:
    11
    Thank You
     
  13. vistaelistic

    vistaelistic Member

    Joined:
    Mar 21, 2016
    Messages:
    275
    Likes Received:
    5
    Thank you
     
  14. arasu123

    arasu123 Member

    Joined:
    Aug 8, 2016
    Messages:
    273
    Likes Received:
    7
    [sdfsdfsdf
    [​IMG]
    General
    Complete name : C:\Users\unknown\Downloads\Video\Zara Larsson - Ain't My Fault (AAC-Master-1080p-Abdi).mp4
    Format : MPEG-4
    Format profile : Base Media / Version 2
    Codec ID : mp42
    File size : 399 MiB
    Duration : 3mn 43s
    Overall bit rate : 15.0 Mbps
    Encoded date : UTC 2016-10-20 14:57:17
    Tagged date : UTC 2016-10-20 14:57:28

    Video
    ID : 1
    Format : AVC
    Format/Info : Advanced Video Codec
    Format profile : [email protected]
    Format settings, CABAC : No
    Format settings, ReFrames : 2 frames
    Format settings, GOP : M=1, N=50
    Codec ID : avc1
    Codec ID/Info : Advanced Video Coding
    Duration : 3mn 43s
    Bit rate : 14.8 Mbps
    Width : 1 920 pixels
    Height : 1 080 pixels
    Display aspect ratio : 16:9
    Frame rate mode : Constant
    Frame rate : 25.000 fps
    Color space : YUV
    Chroma subsampling : 4:2:0
    Bit depth : 8 bits
    Scan type : Progressive
    Bits/(Pixel*Frame) : 0.285
    Stream size : 393 MiB (98%)
    Language : English
    Encoded date : UTC 2016-10-20 14:57:17
    Tagged date : UTC 2016-10-20 14:57:28
    Color range : Limited
    Color primaries : BT.709
    Transfer characteristics : BT.709
    Matrix coefficients : BT.709

    Audio
    ID : 2
    Format : AAC
    Format/Info : Advanced Audio Codec
    Format profile : LC
    Codec ID : 40
    Duration : 3mn 42s
    Bit rate mode : Constant
    Bit rate : 256 Kbps
    Channel(s) : 2 channels
    Channel positions : Front: L R
    Sampling rate : 48.0 KHz
    Compression mode : Lossy
    Stream size : 6.80 MiB (2%)
    Language : English
    Encoded date : UTC 2016-10-20 14:57:17
    Tagged date : UTC 2016-10-20 14:57:28
    ***Hidden content cannot be quoted.***
    [/QUOTE]
     
  15. supakirtza

    supakirtza Member

    Joined:
    Oct 17, 2016
    Messages:
    173
    Likes Received:
    10
  16. multimediafm

    multimediafm Well-Known Member Donor

    Joined:
    Mar 27, 2014
    Messages:
    8,058
    Likes Received:
    320
  17. music2soul

    music2soul Member

    Joined:
    Jun 7, 2016
    Messages:
    300
    Likes Received:
    7
  18. BsMx

    BsMx Member

    Joined:
    Oct 5, 2014
    Messages:
    54
    Likes Received:
    0
    thanks for sharing!
     
  19. withcap

    withcap Well-Known Member

    Joined:
    Oct 29, 2013
    Messages:
    1,311
    Likes Received:
    67
    Thank you!!!
     
  20. jison

    jison Member

    Joined:
    Oct 14, 2015
    Messages:
    478
    Likes Received:
    21
    thanx
     
  21. tf135

    tf135 Well-Known Member

    Joined:
    Nov 14, 2014
    Messages:
    1,537
    Likes Received:
    87
    thank you