Zac Brown Band - Whatever It Is (GACHD) 1080i H.264 DD2.0-HDMania

Discussion in 'GAC HD' started by rgf72k, Jan 21, 2015.

  1. rgf72k

    rgf72k Founder Staff Member AdMiN Uploader

    Joined:
    Oct 1, 2013
    Messages:
    1,035
    Likes Received:
    15,728
    [​IMG] [​IMG] [​IMG] [​IMG] [​IMG] [​IMG] [​IMG] [​IMG] [​IMG]

    General
    ID : 0 (0x0)
    Complete name : Zac Brown Band - Whatever It Is (GACHD) 1080i H.264 DD2.0-HDMania.TS
    Format : MPEG-TS
    File size : 340 MiB
    Duration : 3mn 26s
    Overall bit rate mode : Variable
    Overall bit rate : 13.8 Mbps

    Video
    ID : 4113 (0x1011)
    Menu ID : 1 (0x1)
    Format : AVC
    Format/Info : Advanced Video Codec
    Format profile : [email protected]
    Format settings, CABAC : Yes
    Format settings, ReFrames : 4 frames
    Codec ID : 27
    Duration : 3mn 27s
    Bit rate mode : Variable
    Bit rate : 12.7 Mbps
    Maximum bit rate : 20.0 Mbps
    Width : 1 920 pixels
    Height : 1 080 pixels
    Display aspect ratio : 16:9
    Frame rate : 29.970 fps
    Color space : YUV
    Chroma subsampling : 4:2:0
    Bit depth : 8 bits
    Scan type : Interlaced
    Scan order : Top Field First
    Bits/(Pixel*Frame) : 0.204
    Stream size : 313 MiB (92%)
    Color primaries : BT.709
    Transfer characteristics : BT.709
    Matrix coefficients : BT.709
    Color range : Limited

    Audio
    ID : 4352 (0x1100)
    Menu ID : 1 (0x1)
    Format : AC-3
    Format/Info : Audio Coding 3
    Mode extension : CM (complete main)
    Format settings, Endianness : Big
    Codec ID : 129
    Duration : 3mn 27s
    Bit rate mode : Constant
    Bit rate : 384 Kbps
    Channel(s) : 2 channels
    Channel positions : Front: L R
    Sampling rate : 48.0 KHz
    Bit depth : 16 bits
    Compression mode : Lossy
    Delay relative to video : -1ms
    Stream size : 9.48 MiB (3%)

    Download:
    Hidden Content:
    You must either reply or click 'Like' to see the hidden information contained here.

    Capped by Me :victory:
     
    Last edited: Jan 21, 2015
    angelm, JasonKay, nightowl32 and 2 others like this.
  2. Loading...


  3. rhea

    rhea Well-Known Member

    Joined:
    Jan 6, 2014
    Messages:
    6,828
    Likes Received:
    746
    thanks a lot!
     
  4. Crusha

    Crusha Well-Known Member Capper V . I . P.

    Joined:
    Oct 15, 2014
    Messages:
    2,358
    Likes Received:
    2,621
    thank you :)
     
  5. Zatimi

    Zatimi Active Member

    Joined:
    Aug 27, 2014
    Messages:
    742
    Likes Received:
    142
    thanks a lot
     
  6. dgnio

    dgnio Well-Known Member

    Joined:
    Jul 7, 2014
    Messages:
    1,823
    Likes Received:
    431
    thanks thanks
     
  7. dgnio

    dgnio Well-Known Member

    Joined:
    Jul 7, 2014
    Messages:
    1,823
    Likes Received:
    431
    plz can u more upload music videos from country music from cmt axstv plz
     
  8. valtersc

    valtersc Active Member

    Joined:
    Nov 19, 2014
    Messages:
    256
    Likes Received:
    186
    thanks for share!
     
  9. multimediafm

    multimediafm Well-Known Member Donor

    Joined:
    Mar 27, 2014
    Messages:
    10,276
    Likes Received:
    617
    Thanks :love:
    Zac Brown Band - Whatever It Is (GACHD) 1080i H.264 DD2.0-HDMania
     
  10. yellowstone

    yellowstone Member

    Joined:
    Apr 9, 2016
    Messages:
    63
    Likes Received:
    3
    Great one. Thank you.