Years & Years - King (One.by HD 1080i) - dan93star

Discussion in 'One.by HD' started by Dreamer, Nov 5, 2015.

  1. Dreamer

    Dreamer Lana Del Rey ♥ Halsey Capper V . I . P. Uploader

    Joined:
    Dec 4, 2014
    Messages:
    2,883
    Likes Received:
    4,402
    Years & Years - King (One.by HD)

    [​IMG]


    General
    ID : 0 (0x0)
    Complete name : C:\Users\DK\Desktop\Years & Years - King (One.by HD).ts
    Format : MPEG-TS
    File size : 125 MiB
    Duration : 3mn 42s
    Overall bit rate mode : Variable
    Overall bit rate : 4 720 Kbps
    Maximum Overall bit rate : 3 607 Kbps

    Video
    ID : 4113 (0x1011)
    Menu ID : 1 (0x1)
    Format : AVC
    Format/Info : Advanced Video Codec
    Format profile : [email protected]
    Format settings, CABAC : Yes
    Format settings, ReFrames : 2 frames
    Codec ID : 27
    Duration : 3mn 42s
    Bit rate : 4 332 Kbps
    Width : 1 920 pixels
    Height : 1 080 pixels
    Display aspect ratio : 16:9
    Frame rate : 25.000 fps
    Color space : YUV
    Chroma subsampling : 4:2:0
    Bit depth : 8 bits
    Scan type : Progressive
    Bits/(Pixel*Frame) : 0.084
    Stream size : 115 MiB (92%)

    Audio
    ID : 4352 (0x1100)
    Menu ID : 1 (0x1)
    Format : AC-3
    Format/Info : Audio Coding 3
    Mode extension : CM (complete main)
    Format settings, Endianness : Big
    Codec ID : 129
    Duration : 3mn 42s
    Bit rate mode : Constant
    Bit rate : 192 Kbps
    Channel(s) : 2 channels
    Channel positions : Front: L R
    Sampling rate : 48.0 KHz
    Compression mode : Lossy
    Stream size : 5.09 MiB (4%)

    Capped by me

    Hidden Content:
    You must reply before you can see the hidden data contained here.
     
    DETOX, rhea, CELOBRAZiL and 1 other person like this.
  2. Loading...


  3. 777josem

    777josem ProRes 1080p LPCM V . I . P. Uploader

    Joined:
    Sep 1, 2014
    Messages:
    3,708
    Likes Received:
    2,936
    Thank you so much!
     
  4. rhea

    rhea Well-Known Member

    Joined:
    Jan 6, 2014
    Messages:
    6,956
    Likes Received:
    757
    thank you so much
     
  5. Crusha

    Crusha Well-Known Member Capper V . I . P.

    Joined:
    Oct 15, 2014
    Messages:
    2,358
    Likes Received:
    2,650
    thank you
     
  6. RUS22877773

    RUS22877773 Member

    Joined:
    Jan 7, 2016
    Messages:
    101
    Likes Received:
    1
    Thank you
     
  7. Zeeh

    Zeeh Rallyforrivers.org

    Joined:
    Mar 20, 2015
    Messages:
    735
    Likes Received:
    30
    Thank
     
  8. rcj

    rcj Member

    Joined:
    May 11, 2016
    Messages:
    451
    Likes Received:
    16
    Thank U
     
  9. Kirsche

    Kirsche Member

    Joined:
    Jul 2, 2016
    Messages:
    235
    Likes Received:
    6
    thank you
     
  10. brownbradpitt613

    brownbradpitt613 Member

    Joined:
    Sep 3, 2017
    Messages:
    635
    Likes Received:
    7
    t h a n k s