HDTV Yahoo Concerts - Chvrches 2015-10-27 1080i HDTV MPA2.0 H.264-TrollHD

Discussion in 'HD Live Performances' started by Dfrazzer, Feb 9, 2016.

  1. Dfrazzer

    Dfrazzer Super Moderator Staff Member Super Moderator Capper V . I . P. Donor

    Joined:
    Nov 4, 2013
    Messages:
    4,966
    Likes Received:
    10,843
    [​IMG] [​IMG] [​IMG] [​IMG] [​IMG] [​IMG] [​IMG] [​IMG] [​IMG] [​IMG] [​IMG]

    Code:
    General
    ID : 1 (0x1)
    Complete name : C:\Users\Darren\Desktop\Yahoo Concerts - Chvrches 2015-10-27 1080i HDTV MPA2.0 H.264-TrollHD.ts
    Format : MPEG-TS
    File size : 7.73 GiB
    Duration : 1h 15mn
    Overall bit rate mode : Variable
    Overall bit rate : 14.6 Mbps
    
    Video
    ID : 481 (0x1E1)
    Menu ID : 1 (0x1)
    Format : AVC
    Format/Info : Advanced Video Codec
    Format profile : [email protected]
    Format settings, CABAC : Yes
    Format settings, ReFrames : 4 frames
    Format settings, GOP : M=3, N=15
    Codec ID : 27
    Duration : 1h 15mn
    Bit rate mode : Variable
    Bit rate : 13.5 Mbps
    Maximum bit rate : 14.0 Mbps
    Width : 1 920 pixels
    Height : 1 080 pixels
    Display aspect ratio : 16:9
    Frame rate : 29.970 fps
    Color space : YUV
    Chroma subsampling : 4:2:0
    Bit depth : 8 bits
    Scan type : MBAFF
    Scan order : Top Field First
    Bits/(Pixel*Frame) : 0.217
    Stream size : 7.14 GiB (92%)
    Color primaries : BT.709
    Transfer characteristics : BT.709
    Matrix coefficients : BT.709
    
    Audio
    ID : 482 (0x1E2)
    Menu ID : 1 (0x1)
    Format : MPEG Audio
    Format version : Version 1
    Format profile : Layer 2
    Mode extension : Intensity Stereo + MS Stereo
    Codec ID : 3
    Duration : 1h 15mn
    Bit rate mode : Constant
    Bit rate : 384 Kbps
    Channel(s) : 2 channels
    Sampling rate : 48.0 KHz
    Compression mode : Lossy
    Delay relative to video : -408ms
    Stream size : 208 MiB (3%)
    
    Menu
    ID : 32 (0x20)
    Menu ID : 1 (0x1)
    Duration : 1h 15mn
    List : 481 (0x1E1) (AVC) / 482 (0x1E2) (MPEG Audio)
    Service name : 
    Service provider : Generated by TSReader 2.8.46b on 2015/10/28 20:19
    Service type : digital television
    
    Hidden Content:
    You must reply before you can see the hidden data contained here.
    Original capper: TrollHD
     
  2. Loading...


  3. Crusha

    Crusha Well-Known Member Capper V . I . P.

    Joined:
    Oct 15, 2014
    Messages:
    2,358
    Likes Received:
    2,672
    thank you :)
     
  4. channel003

    channel003 Well-Known Member

    Joined:
    Nov 23, 2013
    Messages:
    626
    Likes Received:
    311
    Thank you so much Dfrazzer :)
     
  5. mario

    mario Well-Known Member

    Joined:
    Oct 7, 2013
    Messages:
    497
    Likes Received:
    932
    thank you
     
  6. yhkim

    yhkim Active Member

    Joined:
    Nov 19, 2013
    Messages:
    875
    Likes Received:
    10
    thank you so much
     
  7. abcde54321

    abcde54321 Member

    Joined:
    Apr 6, 2014
    Messages:
    845
    Likes Received:
    24
  8. feet65

    feet65 Well-Known Member

    Joined:
    Nov 12, 2013
    Messages:
    1,351
    Likes Received:
    89
    very good
     
  9. meloman67

    meloman67 Active Member

    Joined:
    Jun 8, 2014
    Messages:
    882
    Likes Received:
    130
    thank you
     
  10. santa321

    santa321 Well-Known Member

    Joined:
    Dec 7, 2013
    Messages:
    1,508
    Likes Received:
    55
    thank you
     
  11. Vasiliy

    Vasiliy Member

    Joined:
    Jul 8, 2014
    Messages:
    89
    Likes Received:
    14
    Cheers Dfrazzer!
    Hope to see more Chvrches and mr D.Gahan here. Thanks soooo much
     
  12. Maura

    Maura Well-Known Member

    Joined:
    Apr 7, 2014
    Messages:
    2,660
    Likes Received:
    83
    Thank you
     
  13. andreiii005

    andreiii005 Member

    Joined:
    Nov 17, 2013
    Messages:
    206
    Likes Received:
    13
  14. yhnujm1

    yhnujm1 Member

    Joined:
    Jun 26, 2014
    Messages:
    359
    Likes Received:
    5
    thank you
     
  15. johymbim

    johymbim Member

    Joined:
    Jul 30, 2014
    Messages:
    514
    Likes Received:
    16
    thank you
     
  16. Snorom6

    Snorom6 Well-Known Member V . I . P. Uploader

    Joined:
    Dec 17, 2015
    Messages:
    4,248
    Likes Received:
    5,301
  17. rhea

    rhea Well-Known Member

    Joined:
    Jan 6, 2014
    Messages:
    7,111
    Likes Received:
    788
    thank you so much! :)
     
  18. Wimpy2

    Wimpy2 Member

    Joined:
    Jan 21, 2014
    Messages:
    707
    Likes Received:
    25
    thank you
     
  19. Vector09

    Vector09 Well-Known Member

    Joined:
    Feb 16, 2016
    Messages:
    307
    Likes Received:
    581
  20. DDRAKOS

    DDRAKOS New Member

    Joined:
    Mar 19, 2016
    Messages:
    8
    Likes Received:
    0
    thank you
     
  21. shunic

    shunic Member

    Joined:
    Feb 13, 2016
    Messages:
    128
    Likes Received:
    3
    Many Thx! :)