DVD Xuxa - Bom dia (VHS Remaster)

Discussion in 'SD' started by markitomg, Jan 11, 2019.

  1. markitomg

    markitomg Well-Known Member

    Joined:
    May 24, 2016
    Messages:
    1,066
    Likes Received:
    181
    [​IMG]

    Code:
    Format                         : BDAV
    Format/Info                    : Blu-ray Video
    File size                      : 591 MiB
    Duration                       : 4mn 36s
    Overall bit rate mode          : Variable
    Overall bit rate               : 17.9 Mbps
    Maximum Overall bit rate       : 35.5 Mbps
    
    Video
    ID                             : 4113 (0x1011)
    Menu ID                        : 1 (0x1)
    Format                         : AVC
    Format/Info                    : Advanced Video Codec
    Format profile                 : High@L4.1
    Format settings, CABAC         : Yes
    Format settings, ReFrames      : 4 frames
    Codec ID                       : 27
    Duration                       : 4mn 36s
    Bit rate mode                  : Variable
    Bit rate                       : 17.0 Mbps
    Maximum bit rate               : 18.0 Mbps
    Width                          : 1 280 pixels
    Height                         : 720 pixels
    Display aspect ratio           : 16:9
    Frame rate                     : 59.940 fps
    Color space                    : YUV
    Chroma subsampling             : 4:2:0
    Bit depth                      : 8 bits
    Scan type                      : Progressive
    Bits/(Pixel*Frame)             : 0.308
    Stream size                    : 561 MiB (95%)
    Color primaries                : BT.709
    Transfer characteristics       : BT.709
    Matrix coefficients            : BT.709
    
    Audio
    ID                             : 4352 (0x1100)
    Menu ID                        : 1 (0x1)
    Format                         : AC-3
    Format/Info                    : Audio Coding 3
    Mode extension                 : CM (complete main)
    Format settings, Endianness    : Big
    Codec ID                       : 129
    Duration                       : 4mn 35s
    Bit rate mode                  : Constant
    Bit rate                       : 192 Kbps
    Channel(s)                     : 2 channels
    Channel positions              : Front: L R
    Sampling rate                  : 48.0 KHz
    Bit depth                      : 16 bits
    Compression mode               : Lossy
    Stream size                    : 6.31 MiB (1%)
    Hidden Content:
    You must reply before you can see the hidden data contained here.
     
    Pris36 likes this.
  2. Loading...


  3. logrono

    logrono Well-Known Member

    Joined:
    Mar 8, 2017
    Messages:
    1,495
    Likes Received:
    906
    Good post buddy, thanks
     
  4. Pris36

    Pris36 Member

    Joined:
    Jul 23, 2018
    Messages:
    258
    Likes Received:
    14
    yahoooooooooooooooooooo!!!
     
  5. ulygatore

    ulygatore Well-Known Member

    Joined:
    Jun 29, 2017
    Messages:
    2,258
    Likes Received:
    80