Wisin_y_Yandel-Irresistible-720p-x264-2010-CONEXION

Discussion in 'OTHERS' started by tomkins, Apr 30, 2016.

  1. tomkins

    tomkins Active Member

    Joined:
    Mar 28, 2014
    Messages:
    249
    Likes Received:
    126
    [​IMG]

    General
    Unique ID : 194427973970093093684693240523093475580 (0x92457738BDC9B9ADA2AF2BB81F3480FC)
    Complete name : Wisin_y_Yandel-Irresistible-720p-x264-2010-CONEXION
    Format : Matroska
    Format version : Version 2
    File size : 153 MiB
    Duration : 3mn 15s
    Overall bit rate mode : Variable
    Overall bit rate : 6 576 Kbps
    Encoded date : UTC 2010-10-08 03:17:02
    Writing application : mkvmerge v4.3.0 ('Escape from the Island') realizado en Sep 5 2010 10:30:51
    Writing library : libebml v1.0.0 + libmatroska v1.0.0

    Video
    ID : 1
    Format : AVC
    Format/Info : Advanced Video Codec
    Format profile : [email protected]
    Format settings, CABAC : Yes
    Format settings, ReFrames : 5 frames
    Muxing mode : Header stripping
    Codec ID : V_MPEG4/ISO/AVC
    Duration : 3mn 15s
    Bit rate : 6 248 Kbps
    Width : 1 280 pixels
    Height : 720 pixels
    Display aspect ratio : 1.85:1
    Original display aspect ratio : 1.85:1
    Frame rate mode : Constant
    Frame rate : 23.976 (23976/1000) fps
    Color space : YUV
    Chroma subsampling : 4:2:0
    Bit depth : 8 bits
    Scan type : Progressive
    Bits/(Pixel*Frame) : 0.283
    Stream size : 146 MiB (95%)
    Writing library : x264 core 105 r1732 2b04482
    Encoding settings : cabac=1 / ref=5 / deblock=1:-2:-1 / analyse=0x1:0x131 / me=umh / subme=9 / psy=1 / psy_rd=1.00:0.00 / mixed_ref=1 / me_range=24 / chroma_me=1 / trellis=2 / 8x8dct=0 / cqm=0 / deadzone=21,11 / fast_pskip=0 / chroma_qp_offset=-2 / threads=3 / sliced_threads=0 / nr=0 / decimate=1 / interlaced=0 / constrained_intra=0 / bframes=5 / b_pyramid=2 / b_adapt=1 / b_bias=0 / direct=1 / weightb=1 / open_gop=0 / weightp=2 / keyint=250 / keyint_min=23 / scenecut=40 / intra_refresh=0 / rc=crf / mbtree=0 / crf=19.0 / qcomp=0.60 / qpmin=10 / qpmax=51 / qpstep=4 / ip_ratio=1.40 / pb_ratio=1.30 / aq=1:1.00
    Language : Spanish
    Default : Yes
    Forced : No

    Audio
    ID : 2
    Format : MPEG Audio
    Format version : Version 1
    Format profile : Layer 3
    Mode : Joint stereo
    Muxing mode : Header stripping
    Codec ID : A_MPEG/L3
    Codec ID/Hint : MP3
    Duration : 3mn 15s
    Bit rate mode : Variable
    Bit rate : 197 Kbps
    Minimum bit rate : 32.0 Kbps
    Channel(s) : 2 channels
    Sampling rate : 44.1 KHz
    Compression mode : Lossy
    Stream size : 4.59 MiB (3%)
    Writing library : LAME3.97
    Encoding settings : -m j -V 2 -q 3 -lowpass 18.6 --vbr-new -b 32
    Language : Spanish
    Default : Yes
    Forced : No

    Hidden Content:
    You must reply before you can see the hidden data contained here.
     
    DiVenturas and leryck like this.
  2. leryck

    leryck Member

    Joined:
    Sep 21, 2016
    Messages:
    44
    Likes Received:
    1
    gracoass
     
  3. kapil17apr

    kapil17apr Member

    Joined:
    Nov 26, 2016
    Messages:
    163
    Likes Received:
    8
    Thanks
     
  4. DiVenturas

    DiVenturas Well-Known Member

    Joined:
    Oct 21, 2015
    Messages:
    2,736
    Likes Received:
    138