Wisin & Yandel f/ 50 Cent, T-Pain "No Dejes Que Se Apague" No Guns Version [SVQ3-AAC-480P]

Discussion in 'MASTER & MASTER RIP' started by dgol22, May 26, 2020.

  1. dgol22

    dgol22 Well-Known Member

    Joined:
    Sep 2, 2018
    Messages:
    344
    Likes Received:
    463


    Wisin & Yandel f/ 50 Cent, T-Pain "No Dejes Que Se Apague" No Guns Version [SVQ3-AAC-480P]


    [​IMG]

    [​IMG]

    General
    Complete name : Wisin & Yandel f: 50 Cent, T-Pain "No Dejes Que Se Apague" No Guns Version.mov
    Format : MPEG-4
    Format profile : QuickTime
    Codec ID : qt
    File size : 206 MiB
    Duration : 5mn 34s
    Overall bit rate : 5 160 Kbps
    Encoded date : UTC 2010-11-20 20:05:23
    Tagged date : UTC 2010-11-20 20:05:37
    Writing library : Apple QuickTime

    Video
    ID : 1
    Format : Sorenson 3
    Codec ID : SVQ3
    Codec ID/Info : Sorenson Media Video 3 (Apple QuickTime 5)
    Duration : 5mn 34s
    Bit rate : 4 861 Kbps
    Width : 640 pixels
    Height : 480 pixels
    Display aspect ratio : 4:3
    Frame rate mode : Constant
    Frame rate : 29.970 fps
    Bits/(Pixel*Frame) : 0.528
    Stream size : 194 MiB (94%)
    Language : English
    Encoded date : UTC 2010-11-20 20:05:18
    Tagged date : UTC 2010-11-20 20:05:37

    Audio
    ID : 2
    Format : AAC
    Format/Info : Advanced Audio Codec
    Format profile : LC
    Codec ID : 40
    Duration : 5mn 34s
    Bit rate mode : Constant
    Bit rate : 128 Kbps
    Channel(s) : 2 channels
    Channel positions : Front: L R
    Sampling rate : 44.1 KHz
    Compression mode : Lossy
    Stream size : 5.10 MiB (2%)
    Language : English
    Encoded date : UTC 2010-11-20 20:05:18
    Tagged date : UTC 2010-11-20 20:05:37



    Hidden Content:
    You must reply before you can see the hidden data contained here.
     
    DiVenturas, darkmagicar5 and rus31 like this.
  2. Loading...


  3. yilder1

    yilder1 Well-Known Member

    Joined:
    Aug 25, 2016
    Messages:
    1,095
    Likes Received:
    192
    gracias amigo por los videos!
     
  4. sebamax

    sebamax Active Member

    Joined:
    Aug 28, 2016
    Messages:
    1,547
    Likes Received:
    20
    thanks
     
  5. rus31

    rus31 Active Member

    Joined:
    May 20, 2016
    Messages:
    855
    Likes Received:
    36
    thanks
     
  6. darkmagicar5

    darkmagicar5 Active Member

    Joined:
    Oct 8, 2019
    Messages:
    580
    Likes Received:
    205
    muchas gracias
     
  7. user2016

    user2016 Active Member

    Joined:
    Nov 9, 2016
    Messages:
    348
    Likes Received:
    30
    thanks
     
  8. DiVenturas

    DiVenturas Well-Known Member

    Joined:
    Oct 21, 2015
    Messages:
    3,473
    Likes Received:
    227
    Thanks!
     
  9. piolamago

    piolamago Member

    Joined:
    Apr 29, 2020
    Messages:
    132
    Likes Received:
    4
    Gracias papaa
     
  10. Vinny

    Vinny Well-Known Member

    Joined:
    Dec 26, 2013
    Messages:
    4,678
    Likes Received:
    72
    Thanks
     
  11. Sheki

    Sheki Active Member

    Joined:
    Oct 5, 2015
    Messages:
    928
    Likes Received:
    42
    Thanks
     
  12. JonathanM

    JonathanM Member

    Joined:
    Jun 13, 2020
    Messages:
    152
    Likes Received:
    1
  13. multimediafm

    multimediafm Well-Known Member Archiver Donor

    Joined:
    Mar 27, 2014
    Messages:
    17,942
    Likes Received:
    1,703