Wisin ft. Jennifer Lopez & Ricky Martin - Adrenalina (TELEHIT.HD.1080i.DD2.0).-Crusha

Discussion in 'TELEHIT HD' started by Crusha, Mar 11, 2016.

  1. Crusha

    Crusha Well-Known Member Capper

    Joined:
    Oct 15, 2014
    Messages:
    2,350
    Likes Received:
    2,474
    [​IMG] [​IMG] [​IMG] [​IMG] [​IMG] [​IMG] [​IMG] [​IMG]

    Mediainfo
    General
    ID : 1 (0x1)
    Complete name : Wisin ft. Jennifer Lopez & Ricky Martin - Adrenalina (TELEHIT.HD.1080i.DD2.0).-Crusha.ts
    Format : MPEG-TS
    File size : 109 MiB
    Duration : 4mn 26s
    Overall bit rate mode : Variable
    Overall bit rate : 3 430 Kbps

    Video
    ID : 2238 (0x8BE)
    Menu ID : 857 (0x359)
    Format : AVC
    Format/Info : Advanced Video Codec
    Format profile : [email protected]
    Format settings, CABAC : Yes
    Format settings, ReFrames : 4 frames
    Codec ID : 27
    Duration : 4mn 25s
    Bit rate : 3 067 Kbps
    Width : 1 920 pixels
    Height : 1 080 pixels
    Display aspect ratio : 16:9
    Frame rate : 29.970 fps
    Standard : Component
    Color space : YUV
    Chroma subsampling : 4:2:0
    Bit depth : 8 bits
    Scan type : MBAFF
    Scan order : Top Field First
    Bits/(Pixel*Frame) : 0.049
    Stream size : 97.2 MiB (89%)
    Color range : Limited
    Color primaries : BT.709
    Transfer characteristics : BT.709
    Matrix coefficients : BT.709

    Audio
    ID : 3849 (0xF09)
    Menu ID : 857 (0x359)
    Format : AC-3
    Format/Info : Audio Coding 3
    Mode extension : CM (complete main)
    Format settings, Endianness : Big
    Codec ID : 6
    Duration : 4mn 26s
    Bit rate mode : Constant
    Bit rate : 192 Kbps
    Channel(s) : 2 channels
    Channel positions : Front: L R
    Sampling rate : 48.0 KHz
    Bit depth : 16 bits
    Compression mode : Lossy
    Delay relative to video : -167ms
    Stream size : 6.09 MiB (6%)
    Language : English
    Hidden Content:
    You must reply before you can see the hidden data contained here.
    Password:
    crusha
     
    NiceBoy, curg, revilo18 and 1 other person like this.
  2. Loading...


  3. meisam.sch

    meisam.sch Well-Known Member

    Joined:
    Jan 18, 2016
    Messages:
    1,051
    Likes Received:
    43
  4. arnold

    arnold Member

    Joined:
    Oct 29, 2014
    Messages:
    239
    Likes Received:
    4
    thank you !!!
     
  5. revilo18

    revilo18 Well-Known Member

    Joined:
    May 26, 2016
    Messages:
    1,691
    Likes Received:
    78
    THANK
     
  6. vkcpthook

    vkcpthook New Member

    Joined:
    Jul 25, 2016
    Messages:
    27
    Likes Received:
    0
  7. ErnestoHot

    ErnestoHot Member

    Joined:
    May 16, 2015
    Messages:
    239
    Likes Received:
    7
    thank you
     
  8. sorb666

    sorb666 Member

    Joined:
    Dec 10, 2016
    Messages:
    54
    Likes Received:
    3
    thanks
     
  9. Pavulon

    Pavulon Well-Known Member

    Joined:
    Mar 22, 2016
    Messages:
    2,564
    Likes Received:
    252
    thanks
     
  10. DiVenturas

    DiVenturas Well-Known Member

    Joined:
    Oct 21, 2015
    Messages:
    2,535
    Likes Received:
    100
  11. hanshermann

    hanshermann Well-Known Member Uploader

    Joined:
    Aug 24, 2016
    Messages:
    4,464
    Likes Received:
    1,634
    wahts taht
     
  12. curg

    curg Active Member

    Joined:
    Dec 6, 2013
    Messages:
    855
    Likes Received:
    31
    thank you
     
  13. NiceBoy

    NiceBoy Member

    Joined:
    May 20, 2016
    Messages:
    232
    Likes Received:
    2