William_THE_Final_Delivery-H264

Discussion in 'MASTER & MASTER RIP' started by dgol22, Jun 6, 2020.

  1. dgol22

    dgol22 Well-Known Member

    Joined:
    Sep 2, 2018
    Messages:
    344
    Likes Received:
    463

    William_THE_Final_Delivery-H264



    [​IMG]

    [​IMG]


    General
    Complete name : William_THE_Final_Delivery-H264.mov
    Format : MPEG-4
    Format profile : QuickTime
    Format settings : Compressed header
    Codec ID : qt
    File size : 118 MiB
    Duration : 6mn 14s
    Overall bit rate mode : Variable
    Overall bit rate : 2 651 Kbps
    Encoded date : UTC 2012-01-25 23:18:26
    Tagged date : UTC 2012-01-25 23:18:33
    Writing library : Apple QuickTime
    Media/UUID : 73661E7C-1146-475D-8721-54B109A6A444
    Media/History/UUID : D97B0FED-DA26-4F60-97EE-CC5F5AA787C2

    Video
    ID : 1
    Format : AVC
    Format/Info : Advanced Video Codec
    Format profile : Main@L4.0
    Format settings, CABAC : No
    Format settings, ReFrames : 2 frames
    Format settings, GOP : M=2, N=60
    Codec ID : avc1
    Codec ID/Info : Advanced Video Coding
    Duration : 6mn 14s
    Bit rate mode : Variable
    Bit rate : 2 363 Kbps
    Maximum bit rate : 4 104 Kbps
    Width : 1 888 pixels
    Original width : 1 920 pixels
    Height : 1 062 pixels
    Original height : 1 080 pixels
    Display aspect ratio : 16:9
    Frame rate mode : Constant
    Frame rate : 23.976 fps
    Color space : YUV
    Chroma subsampling : 4:2:0
    Bit depth : 8 bits
    Scan type : Progressive
    Bits/(Pixel*Frame) : 0.049
    Stream size : 106 MiB (89%)
    Language : English
    Encoded date : UTC 2012-01-25 23:18:26
    Tagged date : UTC 2012-01-25 23:18:33
    Color primaries : BT.709
    Transfer characteristics : BT.709
    Matrix coefficients : BT.709

    Audio
    ID : 2
    Format : AAC
    Format/Info : Advanced Audio Codec
    Format profile : LC
    Codec ID : 40
    Duration : 6mn 14s
    Source duration : 6mn 14s
    Bit rate mode : Constant
    Bit rate : 288 Kbps
    Nominal bit rate : 320 Kbps
    Channel(s) : 2 channels
    Channel positions : Front: L R
    Sampling rate : 48.0 KHz
    Compression mode : Lossy
    Stream size : 12.8 MiB (11%)
    Source stream size : 12.8 MiB (11%)
    Language : English
    Encoded date : UTC 2012-01-25 23:18:26
    Tagged date : UTC 2012-01-25 23:18:33

    Other
    ID : 3
    Type : Time code
    Format : QuickTime TC
    Duration : 6mn 14s
    Time code of first frame : 00:58:30:00
    Time code settings : Striped
    Language : English
    Encoded date : UTC 2012-01-25 23:18:26
    Tagged date : UTC 2012-01-25 23:18:33

    Hidden Content:
    You must reply before you can see the hidden data contained here.
     
    propz likes this.
  2. Loading...


  3. TuxMay

    TuxMay Member Donor

    Joined:
    May 23, 2020
    Messages:
    138
    Likes Received:
    6
    118MB is not a Master PROres, specially not for a 1080p resolution.
     
  4. X2016X

    X2016X Member

    Joined:
    May 20, 2016
    Messages:
    92
    Likes Received:
    7
    Gracias por el video
     
  5. Lordbr666

    Lordbr666 Active Member

    Joined:
    May 24, 2020
    Messages:
    1,796
    Likes Received:
    17
    Thank You!!!
     
  6. WilHoP

    WilHoP Active Member

    Joined:
    Jan 30, 2014
    Messages:
    764
    Likes Received:
    70
    gran video amigo "!!!
     
  7. propz

    propz Active Member

    Joined:
    Mar 20, 2019
    Messages:
    144
    Likes Received:
    126
    thanks