Will Smith - Men In Black (MTVBase-1080i-DD2.0)-Olgold

Discussion in 'MTV BASE' started by Olgold, Aug 28, 2015.

  1. Olgold

    Olgold Well-Known Member Capper

    Joined:
    Aug 19, 2015
    Messages:
    436
    Likes Received:
    1,521
    [​IMG]
    General
    Format : MPEG-TS
    File size : 203 MiB
    Duration : 3mn 32s
    Overall bit rate mode : Variable
    Overall bit rate : 8 017 Kbps

    Video

    Format : AVC
    Format/Info : Advanced Video Codec
    Format profile : High@L4
    Format settings, CABAC : Yes
    Format settings, ReFrames : 4 frames
    Duration : 3mn 32s
    Bit rate : 7 362 Kbps
    Width : 1 920 pixels
    Height : 1 080 pixels
    Display aspect ratio : 16:9
    Frame rate : 25.000 fps
    Standard : Component
    Color space : YUV
    Chroma subsampling : 4:2:0
    Bit depth : 8 bits
    Scan type : MBAFF
    Scan order : Top Field First
    Bits/(Pixel*Frame) : 0.142
    Stream size : 186 MiB (92%)
    Color range : Limited

    Audio
    Format : AC-3
    Format/Info : Audio Coding 3
    Mode extension : CM (complete main)
    Format settings, Endianness : Big
    Duration : 3mn 32s
    Bit rate mode : Constant
    Bit rate : 256 Kbps
    Channel(s) : 2 channels
    Channel positions : Front: L R
    Sampling rate : 48.0 KHz
    Compression mode : Lossy
    Delay relative to video : 100ms
    Stream size : 6.47 MiB (3%)
    Language : French

    Hidden Content:
    You must reply before you can see the hidden data contained here.
     
    couillerot, jpzster, rhea and 2 others like this.
  2. 777josem

    777josem Well-Known Member V . I . P. Uploader

    Joined:
    Sep 1, 2014
    Messages:
    3,166
    Likes Received:
    1,754
    :DThank you so much!
     
  3. MaggieS

    MaggieS Active Member

    Joined:
    Sep 19, 2014
    Messages:
    971
    Likes Received:
    39
     
  4. rhea

    rhea Well-Known Member

    Joined:
    Jan 6, 2014
    Messages:
    5,870
    Likes Received:
    434
    thank you so much
     
  5. lukierrywhere

    lukierrywhere Member

    Joined:
    May 1, 2015
    Messages:
    161
    Likes Received:
    1
  6. MCTR

    MCTR Active Member

    Joined:
    Feb 23, 2014
    Messages:
    293
    Likes Received:
    35
    Thank You
     
  7. Snorom6

    Snorom6 Well-Known Member Uploader

    Joined:
    Dec 17, 2015
    Messages:
    4,244
    Likes Received:
    4,349
  8. RUS22877773

    RUS22877773 Member

    Joined:
    Jan 7, 2016
    Messages:
    101
    Likes Received:
    1
    Thank you
     
  9. Pavulon

    Pavulon Well-Known Member

    Joined:
    Mar 22, 2016
    Messages:
    1,973
    Likes Received:
    122
    thanks
     
  10. jpzster

    jpzster New Member

    Joined:
    Jun 16, 2016
    Messages:
    29
    Likes Received:
    0
    Thank you
     
  11. kin

    kin Member

    Joined:
    Dec 2, 2015
    Messages:
    64
    Likes Received:
    2
    Thanks!
     
  12. revilo18

    revilo18 Well-Known Member

    Joined:
    May 26, 2016
    Messages:
    1,513
    Likes Received:
    66
    THANKKK
     
  13. couillerot

    couillerot Member

    Joined:
    Sep 7, 2016
    Messages:
    97
    Likes Received:
    3
  14. cotoipa

    cotoipa New Member

    Joined:
    Saturday
    Messages:
    23
    Likes Received:
    0