HDTV Westlife: Hello My Love, Up Town Girl, World of Our Own (Stricly Come Dancing: 17/11/19) (1080i) (HD

Discussion in 'HD Live Performances' started by UnitedReleases, Nov 17, 2019.

  1. UnitedReleases

    UnitedReleases Well-Known Member

    Joined:
    Jan 10, 2016
    Messages:
    617
    Likes Received:
    1,099
    Westlife: Hello My Love, Up Town Girl, World of Our Own (Strictly Come Dancing: 17/11/19) (1080i) (HDTV) (DD2.0) - UnitedReleases

    [​IMG]

    Songs:

    1) Hello My Love
    2) Up Town Girl
    3) World of our Own

    Recorded from BBC One HD In 1080i

    Air Date: 17/11/19

    Channel Aired: BBC 1 HD (UK)

    General
    Unique ID : 254535720494890202148513556623096541076 (0xBF7DCBEE1745849939736148F5C7EF94)
    Complete name : C:\Users\Desktop\Westlife: Hello My Love, Up Town Girl & World of Our Own (Strictly Come Dancing: 17/11/19) (1080i) (HDTV) (DD2.0).mkv
    Format : Matroska
    Format version : Version 4 / Version 2
    File size : 294 MiB
    Duration : 4 min 19 s
    Overall bit rate : 9 494 kb/s
    Movie name : Westlife: Hello My Love, Up Town Girl & World of Our Own (Strictly Come Dancing: 17/11/19) (1080i) (HDTV) (DD2.0)
    Encoded date : UTC 2019-11-17 19:42:17
    Writing application : mkvmerge v33.1.0 ('Primrose') 64-bit
    Writing library : libebml v1.3.7 + libmatroska v1.5.0

    Video
    ID : 1
    Format : AVC
    Format/Info : Advanced Video Codec
    Format profile : High@L4
    Format settings, CABAC : Yes
    Format settings, RefFrames : 4 frames
    Format settings, GOP : M=8, N=24
    Codec ID : V_MPEG4/ISO/AVC
    Duration : 4 min 19 s
    Bit rate : 9 295 kb/s
    Width : 1920 pixels
    Height : 1080 pixels
    Display aspect ratio : 16:9
    Frame rate mode : Variable
    Frame rate : 42.421 FPS
    Original frame rate : 25.000 FPS
    Standard : Component
    Color space : YUV
    Chroma subsampling : 4:2:0
    Bit depth : 8 bits
    Scan type : MBAFF
    Scan type, store method : Separated fields
    Scan order : Top Field First
    Bits/(Pixel*Frame) : 0.106
    Stream size : 288 MiB (98%)
    Title : Westlife: Hello My Love, Up Town Girl & World of Our Own (Strictly Come Dancing: 17/11/19) (1080i) (HDTV) (DD2.0)
    Language : English
    Default : Yes
    Forced : Yes
    Color range : Limited
    Color primaries : BT.709
    Transfer characteristics : BT.709
    Matrix coefficients : BT.709

    Audio
    ID : 2
    Format : AC-3
    Format/Info : Audio Coding 3
    Format settings, Endianness : Big
    Codec ID : A_AC3
    Duration : 4 min 19 s
    Bit rate mode : Constant
    Bit rate : 192 kb/s
    Channel(s) : 2 channels
    Channel positions : Front: L R
    Sampling rate : 48.0 kHz
    Frame rate : 31.250 FPS (1536 SPF)
    Bit depth : 16 bits
    Compression mode : Lossy
    Stream size : 5.95 MiB (2%)
    Title : DD2.0
    Language : English
    Service kind : Complete Main
    Default : Yes
    Forced : Yes

    Used to Record:

    Software: DVBDream
    Capture Card: DVBSky S950 V3
     
    Last edited: Nov 21, 2019
    HeliosNeto, LeoD and pinky2 like this.
  2. Loading...


  3. mmg1818

    mmg1818 aB

    Joined:
    Dec 24, 2013
    Messages:
    660
    Likes Received:
    2,293
    thanks.



    Edit:
    after download rename so for playing
    Westlife - Hello My Love, Up Town Girl, World of Our Own (Stricly Come Dancing 17.11.2019) HDTV UnitedReleases.mkv

    Strictly Come Dancing (Game Show)
    Sunday, November 17th, 2019 on
    BBC One HD London from 7:15pm to 8:00pm
    With music by Westlife.
     
    Last edited: Nov 17, 2019
    UnitedReleases likes this.
  4. multimediafm

    multimediafm Well-Known Member Donor

    Joined:
    Mar 27, 2014
    Messages:
    15,582
    Likes Received:
    1,427
    Thanks
     
    UnitedReleases likes this.
  5. UnitedReleases

    UnitedReleases Well-Known Member

    Joined:
    Jan 10, 2016
    Messages:
    617
    Likes Received:
    1,099
    why add that? and its: Westlife: Hello My Love, Up Town Girl & World of Our Own (Strictly Come Dancing: 17/11/19) (1080i) (HDTV) (DD2.0) - UnitedReleases
     
  6. mmg1818

    mmg1818 aB

    Joined:
    Dec 24, 2013
    Messages:
    660
    Likes Received:
    2,293
    you download again in your PC and see what happens.
     
  7. UnitedReleases

    UnitedReleases Well-Known Member

    Joined:
    Jan 10, 2016
    Messages:
    617
    Likes Received:
    1,099
    plays fine on my pc from that site, i reuploaded and reposted link try again or change extension to .mkv if doesnt play and your pc, thats your fault and your pc is crap because its working on vlc and mpc-hc on mine, also noone else is having problems :)
     
    Last edited: Nov 17, 2019
  8. mmg1818

    mmg1818 aB

    Joined:
    Dec 24, 2013
    Messages:
    660
    Likes Received:
    2,293
    I know how play videos, but there are others who don't know the file name too long.

    :)
     
  9. UnitedReleases

    UnitedReleases Well-Known Member

    Joined:
    Jan 10, 2016
    Messages:
    617
    Likes Received:
    1,099
    well it still plays with that file name or they could just rename it simple
     
  10. mattcardle

    mattcardle Active Member Donor

    Joined:
    Sep 12, 2014
    Messages:
    343
    Likes Received:
    57
    Thanks!! Westlife is back!! Yeah!!!
     
    UnitedReleases likes this.
  11. Ermina

    Ermina New Member

    Joined:
    Jan 23, 2019
    Messages:
    17
    Likes Received:
    6
    Many thanks)
     
    UnitedReleases likes this.
  12. butchy07

    butchy07 Active Member

    Joined:
    Sep 2, 2019
    Messages:
    118
    Likes Received:
    10
    thanks
     
    UnitedReleases likes this.
  13. doolittle27

    doolittle27 Member

    Joined:
    Jan 24, 2019
    Messages:
    195
    Likes Received:
    16
    Thank you!
     
    UnitedReleases likes this.
  14. Timsi

    Timsi Active Member

    Joined:
    Jun 17, 2016
    Messages:
    649
    Likes Received:
    46
    thankas
     
    UnitedReleases likes this.
  15. Antonio Barros

    Antonio Barros Well-Known Member

    Joined:
    Nov 14, 2013
    Messages:
    1,626
    Likes Received:
    348
    thanxxxxxxxxxx
     
    UnitedReleases likes this.
  16. aaliyah2009

    aaliyah2009 Well-Known Member

    Joined:
    Feb 2, 2017
    Messages:
    1,897
    Likes Received:
    102
    thanks
     
    UnitedReleases likes this.
  17. orionN

    orionN Well-Known Member

    Joined:
    Jan 26, 2018
    Messages:
    1,289
    Likes Received:
    69
    OMG THANK YOU SO MUCH FRIEND
     
    UnitedReleases likes this.
  18. alexandre monso

    alexandre monso Well-Known Member

    Joined:
    Apr 18, 2015
    Messages:
    1,013
    Likes Received:
    25
  19. rasputin

    rasputin Well-Known Member

    Joined:
    Dec 9, 2015
    Messages:
    1,344
    Likes Received:
    98
    thanx
     
    UnitedReleases likes this.
  20. louissgd

    louissgd New Member

    Joined:
    Apr 5, 2019
    Messages:
    15
    Likes Received:
    2
    thanks
     
    UnitedReleases likes this.
  21. diego_123

    diego_123 Member

    Joined:
    Dec 15, 2013
    Messages:
    739
    Likes Received:
    21
    thanks.
     
    UnitedReleases likes this.