[VOB]Britney Spears - Dream Within a Dream Tour live from Las Vegas

Discussion in 'SD Live Performances' started by CJMCH, Mar 19, 2017.

  1. lim

    lim Well-Known Member

    Joined:
    Nov 8, 2013
    Messages:
    2,427
    Likes Received:
    80
    thank you
     
  2. starmaker

    starmaker Member

    Joined:
    Sep 25, 2016
    Messages:
    83
    Likes Received:
    5
    Thank you so much!
     
  3. Raulcarbajal

    Raulcarbajal New Member

    Joined:
    Jul 7, 2017
    Messages:
    1
    Likes Received:
    0
    Thank you so much!
     
  4. charlie2789

    charlie2789 Member

    Joined:
    Aug 3, 2017
    Messages:
    87
    Likes Received:
    3
  5. Sidney

    Sidney Active Member

    Joined:
    Feb 8, 2017
    Messages:
    351
    Likes Received:
    27
    Thanks
     
  6. alexjspears

    alexjspears Member

    Joined:
    Jun 8, 2016
    Messages:
    222
    Likes Received:
    13
    thanks
     
    Sidney likes this.
  7. Sidney

    Sidney Active Member

    Joined:
    Feb 8, 2017
    Messages:
    351
    Likes Received:
    27
    thanks
     
  8. Sidney

    Sidney Active Member

    Joined:
    Feb 8, 2017
    Messages:
    351
    Likes Received:
    27
    thanks
     
  9. rkgmade

    rkgmade Well-Known Member

    Joined:
    Sep 29, 2016
    Messages:
    2,062
    Likes Received:
    120
    thamk
     
  10. shila

    shila Member

    Joined:
    Dec 3, 2013
    Messages:
    336
    Likes Received:
    22
    thankssssssssssssssssssssssss
     
  11. Axiles

    Axiles Member

    Joined:
    May 1, 2016
    Messages:
    258
    Likes Received:
    10
    thanks
     
  12. luisbg2016

    luisbg2016 Member

    Joined:
    Oct 26, 2016
    Messages:
    38
    Likes Received:
    1
  13. lucas.alexaander

    lucas.alexaander Member

    Joined:
    Aug 29, 2016
    Messages:
    106
    Likes Received:
    20
    thanks
     
    Sidney likes this.
  14. Rubn4

    Rubn4 Well-Known Member

    Joined:
    Oct 30, 2016
    Messages:
    867
    Likes Received:
    394
    Thanks :D :love:
     
  15. WOKE

    WOKE Member

    Joined:
    Oct 24, 2016
    Messages:
    163
    Likes Received:
    14
    thanks babe
     
  16. lumiillerjr

    lumiillerjr Active Member

    Joined:
    Jan 24, 2019
    Messages:
    257
    Likes Received:
    37
    thanks
     
  17. ksr91

    ksr91 Active Member

    Joined:
    Oct 21, 2016
    Messages:
    115
    Likes Received:
    86
    thanks so much!
     
  18. orionN

    orionN Well-Known Member

    Joined:
    Jan 26, 2018
    Messages:
    1,065
    Likes Received:
    56
    yo tambien tengo el DVD original gracias por extraerlo amigo
     
  19. renato23e

    renato23e Member

    Joined:
    Apr 13, 2019
    Messages:
    34
    Likes Received:
    3
    thanks

    [​IMG]

    ***Hidden content cannot be quoted.***

    Format : MPEG-PS
    File size : 3.69 GiB
    Duration : 1h 29mn
    Overall bit rate mode : Variable
    Overall bit rate : 5 878 Kbps

    Video
    ID : 224 (0xE0)
    Format : MPEG Video
    Format version : Version 2
    Format profile : Main@Main
    Format settings, BVOP : Yes
    Format settings, Matrix : Custom
    Format settings, GOP : M=3, N=15
    Format settings, picture struc : Frame
    Duration : 1h 29mn
    Bit rate mode : Variable
    Bit rate : 5 121 Kbps
    Maximum bit rate : 5 500 Kbps
    Width : 720 pixels
    Height : 480 pixels
    Display aspect ratio : 4:3
    Frame rate : 29.970 fps
    Standard : NTSC
    Color space : YUV
    Chroma subsampling : 4:2:0
    Bit depth : 8 bits
    Scan type : Interlaced
    Scan order : Top Field First
    Compression mode : Lossy
    Bits/(Pixel*Frame) : 0.494
    Time code of first frame : 00:00:36:00
    Time code source : Group of pictures header
    GOP, Open/Closed : Closed
    Stream size : 3.21 GiB (87%)

    Audio #1
    ID : 189 (0xBD)-128 (0x80)
    Format : AC-3
    Format/Info : Audio Coding 3
    Mode extension : CM (complete main)
    Format settings, Endianness : Big
    Muxing mode : DVD-Video
    Duration : 1h 29mn
    Bit rate mode : Constant
    Bit rate : 192 Kbps
    Channel(s) : 2 channels
    Channel positions : Front: L R
    Sampling rate : 48.0 KHz
    Compression mode : Lossy
    Stream size : 123 MiB (3%)

    Audio #2
    ID : 189 (0xBD)-129 (0x81)
    Format : AC-3
    Format/Info : Audio Coding 3
    Mode extension : CM (complete main)
    Format settings, Endianness : Big
    Muxing mode : DVD-Video
    Duration : 1h 29mn
    Bit rate mode : Constant
    Bit rate : 448 Kbps
    Channel(s) : 6 channels
    Channel positions : Front: L C R, Side: L R, LFE
    Sampling rate : 48.0 KHz
    Compression mode : Lossy
    Delay relative to video : 33ms
    Stream size : 288 MiB (8%)
    [/QUOTE]
     
    Sidney likes this.
  20. Sidney

    Sidney Active Member

    Joined:
    Feb 8, 2017
    Messages:
    351
    Likes Received:
    27
    thanks