HDTV Video Killed the Radio Star - Michael Jackson 2013 BISHD 1080i HDTV DD5.1 H.264 CELOBRAZiL-HDMania

Discussion in 'Documentaries' started by CELOBRAZiL, Jan 25, 2018.

  1. CELOBRAZiL

    CELOBRAZiL Well-Known Member Capper V . I . P. Donor

    Joined:
    Oct 2, 2013
    Messages:
    7,465
    Likes Received:
    24,585
    Video Killed the Radio Star - Michael Jackson 2013 BISHD 1080i HDTV DD5.1 H.264 CELOBRAZiL-HDMania

    [​IMG]



    Format : MPEG-TS
    File size : 1.32 GiB
    Duration : 21 min 41 s
    Overall bit rate mode : Variable
    Overall bit rate : 8 724 kb/s

    Video
    ID : 420 (0x1A4)
    Menu ID : 5142 (0x1416)
    Format : AVC
    Format/Info : Advanced Video Codec
    Format profile : High@L4
    Format settings : CABAC / 4 Ref Frames
    Format settings, CABAC : Yes
    Format settings, RefFrames : 4 frames
    Codec ID : 27
    Duration : 21 min 44 s
    Bit rate : 7 905 kb/s
    Width : 1 920 pixels
    Height : 1 080 pixels
    Display aspect ratio : 16:9
    Frame rate : 29.970 (30000/1001) FPS
    Color space : YUV
    Chroma subsampling : 4:2:0
    Bit depth : 8 bits
    Scan type : MBAFF
    Scan type, store method : Interleaved fields
    Scan order : Top Field First
    Bits/(Pixel*Frame) : 0.127
    Stream size : 1.20 GiB (91%)

    Audio
    ID : 424 (0x1A8)
    Menu ID : 5142 (0x1416)
    Format : AC-3
    Format/Info : Audio Coding 3
    Codec ID : 129
    Duration : 21 min 44 s
    Bit rate mode : Constant
    Bit rate : 384 kb/s
    Channel(s) : 6 channels
    Channel positions : Front: L C R, Side: L R, LFE
    Sampling rate : 48.0 kHz
    Frame rate : 31.250 FPS (1536 SPF)
    Bit depth : 16 bits
    Compression mode : Lossy
    Stream size : 59.7 MiB (4%)
    Language : English
    Service kind : Complete Main

    Link(s):
    Hidden Content:
    You must either reply or click 'Like' to see the hidden information contained here.
     
    Last edited: Jan 25, 2018
  2. Loading...


  3. CELOBRAZiL

    CELOBRAZiL Well-Known Member Capper V . I . P. Donor

    Joined:
    Oct 2, 2013
    Messages:
    7,465
    Likes Received:
    24,585
  4. mizdot

    mizdot Well-Known Member

    Joined:
    Nov 13, 2014
    Messages:
    3,681
    Likes Received:
    179
    tnx man
     
    CELOBRAZiL likes this.
  5. slashero82

    slashero82 Member

    Joined:
    Nov 20, 2016
    Messages:
    45
    Likes Received:
    3
    gracias x subir tan excelente mini documentl
    tendras de GUNS N' ROSES? gracias.
     
  6. CELOBRAZiL

    CELOBRAZiL Well-Known Member Capper V . I . P. Donor

    Joined:
    Oct 2, 2013
    Messages:
    7,465
    Likes Received:
    24,585
    Sorry but i don't have...
     
  7. thigurgelbritney

    thigurgelbritney Member

    Joined:
    Aug 2, 2018
    Messages:
    625
    Likes Received:
    19
    ameiii
     
    CELOBRAZiL likes this.
  8. DERPSKI

    DERPSKI Member

    Joined:
    Apr 27, 2019
    Messages:
    488
    Likes Received:
    17
    THANKS
     
    CELOBRAZiL likes this.