HDTV Video Killed the Radio Star - Lou Reed BISHD 1080i HDTV DD5.1 H.264 CELOBRAZiL-HDMania

Discussion in 'Documentaries' started by CELOBRAZiL, Feb 1, 2019.

  1. CELOBRAZiL

    CELOBRAZiL Well-Known Member Capper V . I . P. Donor

    Joined:
    Oct 2, 2013
    Messages:
    7,226
    Likes Received:
    23,847
    Video Killed the Radio Star - Lou Reed BISHD 1080i HDTV DD5.1 H.264 CELOBRAZiL-HDMania

    [​IMG]



    Format : MPEG-TS
    File size : 938 MiB
    Duration : 20 min 58 s
    Overall bit rate mode : Variable
    Overall bit rate : 6 251 kb/s

    Video
    ID : 1040 (0x410)
    Menu ID : 5142 (0x1416)
    Format : AVC
    Format/Info : Advanced Video Codec
    Format profile : High@L4
    Format settings : CABAC / 4 Ref Frames
    Format settings, CABAC : Yes
    Format settings, RefFrames : 4 frames
    Codec ID : 27
    Duration : 20 min 58 s
    Bit rate : 5 555 kb/s
    Width : 1 920 pixels
    Height : 1 080 pixels
    Display aspect ratio : 16:9
    Frame rate : 29.970 (30000/1001) FPS
    Color space : YUV
    Chroma subsampling : 4:2:0
    Bit depth : 8 bits
    Scan type : MBAFF
    Scan type, store method : Interleaved fields
    Scan order : Top Field First
    Bits/(Pixel*Frame) : 0.089
    Stream size : 833 MiB (89%)

    Audio
    ID : 1041 (0x411)
    Menu ID : 5142 (0x1416)
    Format : AC-3
    Format/Info : Audio Coding 3
    Commercial name : Dolby Digital
    Codec ID : 129
    Duration : 20 min 58 s
    Bit rate mode : Constant
    Bit rate : 384 kb/s
    Channel(s) : 6 channels
    Channel layout : L R C LFE Ls Rs
    Sampling rate : 48.0 kHz
    Frame rate : 31.250 FPS (1536 SPF)
    Bit depth : 16 bits
    Compression mode : Lossy
    Stream size : 57.6 MiB (6%)
    Language : English
    Service kind : Complete Main


    Link(s):
    Hidden Content:
    You must either reply or click 'Like' to see the hidden information contained here.
     
    rasputin likes this.
  2. Loading...


  3. DERPSKI

    DERPSKI Member

    Joined:
    Apr 27, 2019
    Messages:
    449
    Likes Received:
    16
    THANKS DUDE
     
    CELOBRAZiL likes this.