HDTV Victoria Justice - Build-A-Bear Workshop Commercials 1080i HDTV DD5.1 MPEG2-TrollHD

Discussion in 'Interviews / TV shows / Others' started by vans, Jul 17, 2017.

  1. vans

    vans Well-Known Member

    Joined:
    Dec 14, 2013
    Messages:
    205
    Likes Received:
    1,005
    Victoria Justice - Build-A-Bear Workshop Commercial 1080i HDTV DD5.1 MPEG2-TrollHD

    [​IMG]

    Code:
    General
    ID                                       : 1 (0x1)
    Complete name                            Victoria Justice - Build-A-Bear Workshop Commercial 1080i HDTV DD5.1 MPEG2-TrollHD.ts
    Format                                   : MPEG-TS
    File size                                : 31.2 MiB
    Duration                                 : 15s 403ms
    Overall bit rate mode                    : Variable
    Overall bit rate                         : 17.0 Mbps
    
    Video
    ID                                       : 617 (0x269)
    Menu ID                                  : 1 (0x1)
    Format                                   : MPEG Video
    Format version                           : Version 2
    Format profile                           : [email protected]
    Format settings, BVOP                    : Yes
    Format settings, Matrix                  : Custom
    Format settings, GOP                     : Variable
    Codec ID                                 : 2
    Duration                                 : 15s 98ms
    Bit rate mode                            : Variable
    Bit rate                                 : 15.7 Mbps
    Maximum bit rate                         : 18.0 Mbps
    Width                                    : 1 920 pixels
    Height                                   : 1 080 pixels
    Display aspect ratio                     : 16:9
    Frame rate                               : 29.970 fps
    Color space                              : YUV
    Chroma subsampling                       : 4:2:0
    Bit depth                                : 8 bits
    Compression mode                         : Lossy
    Bits/(Pixel*Frame)                       : 0.253
    Time code of first frame                 : 00:00:00;00
    Time code source                         : Group of pictures header
    Stream size                              : 28.3 MiB (91%)
    
    Audio
    ID                                       : 616 (0x268)
    Menu ID                                  : 1 (0x1)
    Format                                   : AC-3
    Format/Info                              : Audio Coding 3
    Mode extension                           : CM (complete main)
    Format settings, Endianness              : Big
    Codec ID                                 : 129
    Duration                                 : 15s 136ms
    Bit rate mode                            : Constant
    Bit rate                                 : 384 Kbps
    Channel(s)                               : 6 channels
    Channel positions                        : Front: L C R, Side: L R, LFE
    Sampling rate                            : 48.0 KHz
    Bit depth                                : 16 bits
    Compression mode                         : Lossy
    Delay relative to video                  : -7ms
    Stream size                              : 710 KiB (2%)
    Language                                 : English
    
    Text #1
    ID                                       : 617 (0x269)-CC1
    Menu ID                                  : 1 (0x1)
    Format                                   : EIA-608
    Muxing mode                              : A/53 / DTVCC Transport
    Muxing mode, more info                   : Muxed in Video #1
    Duration                                 : 15s 98ms
    Bit rate mode                            : Constant
    Stream size                              : 0.00 Byte (0%)
    
    Text #2
    ID                                       : 617 (0x269)-1
    Menu ID                                  : 1 (0x1)
    Format                                   : EIA-708
    Muxing mode                              : A/53 / DTVCC Transport
    Muxing mode, more info                   : Muxed in Video #1
    Duration                                 : 15s 98ms
    Bit rate mode                            : Constant
    Stream size                              : 0.00 Byte (0%)
    
    
    
    
    
    Hidden Content:
    You must reply before you can see the hidden data contained here.

    Another Victoria Justice Build-a-Bear Commercial 1080i HDTV DD5.1 MPEG2-TrollHD

    [​IMG]

    Code:
    General
    ID                                       : 1 (0x1)
    Complete name                            Another Victoria Justice Build-a-Bear Commercial 1080i HDTV DD5.1 MPEG2-TrollHD.ts
    Format                                   : MPEG-TS
    File size                                : 26.1 MiB
    Duration                                 : 15s 508ms
    Overall bit rate mode                    : Variable
    Overall bit rate                         : 14.1 Mbps
    Law rating                               : TV-Y7 (FV)
    
    Video
    ID                                       : 236 (0xEC)
    Menu ID                                  : 1 (0x1)
    Format                                   : MPEG Video
    Format version                           : Version 2
    Format profile                           : [email protected]
    Format settings, BVOP                    : Yes
    Format settings, Matrix                  : Custom
    Format settings, GOP                     : Variable
    Codec ID                                 : 2
    Duration                                 : 15s 115ms
    Bit rate mode                            : Variable
    Bit rate                                 : 12.9 Mbps
    Maximum bit rate                         : 38.8 Mbps
    Width                                    : 1 920 pixels
    Height                                   : 1 080 pixels
    Display aspect ratio                     : 16:9
    Frame rate                               : 29.970 fps
    Standard                                 : Component
    Color space                              : YUV
    Chroma subsampling                       : 4:2:0
    Bit depth                                : 8 bits
    Scan type                                : Interlaced
    Scan order                               : Top Field First
    Compression mode                         : Lossy
    Bits/(Pixel*Frame)                       : 0.208
    Time code of first frame                 : 00:00:00;00
    Time code source                         : Group of pictures header
    Stream size                              : 23.3 MiB (90%)
    Color primaries                          : BT.709
    Transfer characteristics                 : BT.709
    Matrix coefficients                      : BT.709
    
    Audio
    ID                                       : 239 (0xEF)
    Menu ID                                  : 1 (0x1)
    Format                                   : AC-3
    Format/Info                              : Audio Coding 3
    Mode extension                           : CM (complete main)
    Format settings, Endianness              : Big
    Codec ID                                 : 129
    Duration                                 : 15s 104ms
    Bit rate mode                            : Constant
    Bit rate                                 : 448 Kbps
    Channel(s)                               : 6 channels
    Channel positions                        : Front: L C R, Side: L R, LFE
    Sampling rate                            : 48.0 KHz
    Bit depth                                : 16 bits
    Compression mode                         : Lossy
    Delay relative to video                  : 27ms
    Stream size                              : 826 KiB (3%)
    Language                                 : English
    
    Text
    ID                                       : 236 (0xEC)-CC1
    Menu ID                                  : 1 (0x1)
    Format                                   : EIA-608
    Muxing mode                              : A/53 / DTVCC Transport
    Muxing mode, more info                   : Muxed in Video #1
    Duration                                 : 15s 115ms
    Bit rate mode                            : Constant
    Stream size                              : 0.00 Byte (0%)
    
    
    
    
    
    
    Hidden Content:
    You must reply before you can see the hidden data contained here.
     
    Hyrus likes this.
  2. Loading...


  3. Hyrus

    Hyrus Arianator / Selenator / Victorian / Saxobeat / LBS Donor

    Joined:
    Feb 9, 2015
    Messages:
    1,226
    Likes Received:
    896
    Thanks for the sweet Victoria :):love: