DVD Victoria Beckham - Let Your Head Go (Clean) [VOB]

Discussion in 'SD' started by claudio1301, Jul 31, 2020.

  1. claudio1301

    claudio1301 Well-Known Member V . I . P.

    Joined:
    Oct 2, 2018
    Messages:
    1,488
    Likes Received:
    3,525
    [​IMG]
    Code:
    General
    Complete name                  : Victoria Beckham - Let Your Head Go (Clean).vob
    Format                         : MPEG-PS
    File size                      : 161 MiB
    Duration                       : 3 min 55 s
    Overall bit rate mode          : Variable
    Overall bit rate               : 5 763 kb/s
    
    Video
    ID                             : 224 (0xE0)
    Format                         : MPEG Video
    Format version                 : Version 2
    Format profile                 : Main@Main
    Format settings                : CustomMatrix / BVOP
    Format settings, BVOP          : Yes
    Format settings, Matrix        : Custom
    Format settings, GOP           : Variable
    Format settings, picture struc : Frame
    Duration                       : 3 min 55 s
    Bit rate mode                  : Variable
    Bit rate                       : 5 425 kb/s
    Maximum bit rate               : 9 800 kb/s
    Width                          : 720 pixels
    Height                         : 576 pixels
    Display aspect ratio           : 4:3
    Frame rate                     : 25.000 FPS
    Standard                       : PAL
    Color space                    : YUV
    Chroma subsampling             : 4:2:0
    Bit depth                      : 8 bits
    Scan type                      : Interlaced
    Scan order                     : Top Field First
    Compression mode               : Lossy
    Bits/(Pixel*Frame)             : 0.523
    Stream size                    : 152 MiB (94%)
    
    Audio
    ID                             : 189 (0xBD)-128 (0x80)
    Format                         : AC-3
    Format/Info                    : Audio Coding 3
    Commercial name                : Dolby Digital
    Muxing mode                    : DVD-Video
    Duration                       : 3 min 54 s
    Bit rate mode                  : Constant
    Bit rate                       : 224 kb/s
    Channel(s)                     : 2 channels
    Channel layout                 : L R
    Sampling rate                  : 48.0 kHz
    Frame rate                     : 31.250 FPS (1536 SPF)
    Compression mode               : Lossy
    Stream size                    : 6.27 MiB (4%)
    Service kind                   : Complete Main
    Host: Mediafire
    Hidden Content:
    You must reply before you can see the hidden data contained here.
     
  2. Loading...


  3. multimediafm

    multimediafm Well-Known Member Archiver Donor

    Joined:
    Mar 27, 2014
    Messages:
    19,166
    Likes Received:
    1,913
  4. 3veronicas

    3veronicas Well-Known Member

    Joined:
    Aug 26, 2016
    Messages:
    5,186
    Likes Received:
    434
    Thanks!
     
  5. jempolgede

    jempolgede Well-Known Member

    Joined:
    Dec 30, 2013
    Messages:
    624
    Likes Received:
    579
    Thanks!
     
  6. Sergiodegros

    Sergiodegros Well-Known Member

    Joined:
    Mar 21, 2017
    Messages:
    1,536
    Likes Received:
    85
  7. jojo335

    jojo335 Well-Known Member

    Joined:
    Jan 18, 2017
    Messages:
    1,149
    Likes Received:
    46
    thanks
     
  8. Vinny

    Vinny Well-Known Member

    Joined:
    Dec 26, 2013
    Messages:
    4,901
    Likes Received:
    84
    Thanks
     
  9. phatz

    phatz Member

    Joined:
    Jun 29, 2017
    Messages:
    363
    Likes Received:
    11
    thanks
     
  10. slynx

    slynx Member

    Joined:
    Sep 2, 2020
    Messages:
    82
    Likes Received:
    7
    thanks
     
  11. noho_2003

    noho_2003 Well-Known Member

    Joined:
    Sep 26, 2017
    Messages:
    1,188
    Likes Received:
    45
  12. ksnykmm

    ksnykmm Member

    Joined:
    Sep 27, 2020
    Messages:
    228
    Likes Received:
    7
    Thanks
     
  13. crucialjake

    crucialjake Member

    Joined:
    Oct 8, 2020
    Messages:
    218
    Likes Received:
    0
  14. tv_savage

    tv_savage Member

    Joined:
    Dec 11, 2020
    Messages:
    348
    Likes Received:
    2