DVD Victoria Beckham - A Mind Of Its Own (Clean) [VOB]

Discussion in 'SD' started by claudio1301, Jul 31, 2020.

  1. claudio1301

    claudio1301 Well-Known Member V . I . P.

    Joined:
    Oct 2, 2018
    Messages:
    1,488
    Likes Received:
    3,525
    [​IMG]
    Code:
    General
    Complete name                  : Victoria Beckahm - A Mind Of Its Own (Clean).vob
    Format                         : MPEG-PS
    File size                      : 264 MiB
    Duration                       : 3 min 49 s
    Overall bit rate               : 9 664 kb/s
    
    Video
    ID                             : 224 (0xE0)
    Format                         : MPEG Video
    Format version                 : Version 2
    Format profile                 : Main@Main
    Format settings                : BVOP
    Format settings, BVOP          : Yes
    Format settings, Matrix        : Default
    Format settings, GOP           : M=3, N=13
    Format settings, picture struc : Field
    Duration                       : 3 min 49 s
    Bit rate mode                  : Constant
    Bit rate                       : 7 500 kb/s
    Width                          : 720 pixels
    Height                         : 576 pixels
    Display aspect ratio           : 4:3
    Frame rate                     : 25.000 FPS
    Standard                       : PAL
    Color space                    : YUV
    Chroma subsampling             : 4:2:0
    Bit depth                      : 8 bits
    Scan type                      : Interlaced
    Scan order                     : Top Field First
    Compression mode               : Lossy
    Bits/(Pixel*Frame)             : 0.723
    Time code of first frame       : 10:00:00:00
    Time code source               : Group of pictures header
    GOP, Open/Closed               : Open
    Stream size                    : 205 MiB (77%)
    Color primaries                : BT.601 PAL
    Transfer characteristics       : BT.470 System B/G
    Matrix coefficients            : BT.470 System B/G
    
    Audio #1
    ID                             : 189 (0xBD)-129 (0x81)
    Format                         : AC-3
    Format/Info                    : Audio Coding 3
    Commercial name                : Dolby Digital
    Muxing mode                    : DVD-Video
    Duration                       : 3 min 49 s
    Bit rate mode                  : Constant
    Bit rate                       : 448 kb/s
    Channel(s)                     : 6 channels
    Channel layout                 : L R C LFE Ls Rs
    Sampling rate                  : 48.0 kHz
    Frame rate                     : 31.250 FPS (1536 SPF)
    Compression mode               : Lossy
    Stream size                    : 12.2 MiB (5%)
    Service kind                   : Complete Main
    
    Audio #2
    ID                             : 189 (0xBD)-160 (0xA0)
    Format                         : PCM
    Format settings                : Big / Signed
    Muxing mode                    : DVD-Video
    Duration                       : 3 min 49 s
    Bit rate mode                  : Constant
    Bit rate                       : 1 536 kb/s
    Channel(s)                     : 2 channels
    Sampling rate                  : 48.0 kHz
    Bit depth                      : 16 bits
    Stream size                    : 42.0 MiB (16%)
    Host: Mediafire
    Hidden Content:
    You must reply before you can see the hidden data contained here.
     
  2. Loading...


  3. multimediafm

    multimediafm Well-Known Member Archiver Donor

    Joined:
    Mar 27, 2014
    Messages:
    19,166
    Likes Received:
    1,913
  4. 3veronicas

    3veronicas Well-Known Member

    Joined:
    Aug 26, 2016
    Messages:
    5,186
    Likes Received:
    434
    Thanks!
     
  5. jempolgede

    jempolgede Well-Known Member

    Joined:
    Dec 30, 2013
    Messages:
    624
    Likes Received:
    579
    Thanks!
     
  6. jojo335

    jojo335 Well-Known Member

    Joined:
    Jan 18, 2017
    Messages:
    1,149
    Likes Received:
    46
    thanks
     
  7. Vinny

    Vinny Well-Known Member

    Joined:
    Dec 26, 2013
    Messages:
    4,901
    Likes Received:
    84
    Thanks
     
  8. phatz

    phatz Member

    Joined:
    Jun 29, 2017
    Messages:
    363
    Likes Received:
    11
    thanks
     
  9. slynx

    slynx Member

    Joined:
    Sep 2, 2020
    Messages:
    82
    Likes Received:
    7
    thanks
     
  10. the_lanoz

    the_lanoz Active Member

    Joined:
    Jan 2, 2017
    Messages:
    544
    Likes Received:
    41
  11. ricards51

    ricards51 Well-Known Member

    Joined:
    Oct 10, 2016
    Messages:
    2,791
    Likes Received:
    79
    very special
     
  12. ksnykmm

    ksnykmm Member

    Joined:
    Sep 27, 2020
    Messages:
    228
    Likes Received:
    7
    Thanks
     
  13. crucialjake

    crucialjake Member

    Joined:
    Oct 8, 2020
    Messages:
    218
    Likes Received:
    0