VH1 Behind The Music - Christina Aguilera (2010)

Discussion in 'Documentaries' started by alyssaprimp, May 27, 2017.

  1. alyssaprimp

    alyssaprimp Well-Known Member

    Joined:
    May 22, 2016
    Messages:
    580
    Likes Received:
    1,406
    [​IMG]
    General
    Unique ID : 223538076886508254840902661298813559393 (0xA82BDE1AF1E3B2189DE2CB50C3266261)
    Complete name : VH1.Behind.The.Music.Christina.Aguilera.HR.PDTV.x264.mkv
    Format : Matroska
    Format version : Version 2
    File size : 558 MiB
    Duration : 42 min 51 s
    Overall bit rate : 1 821 kb/s
    Encoded date : UTC 2010-06-15 11:30:32
    Writing application : mkvmerge v4.0.0 ('The Stars were mine') built on Jun 6 2010 16:18:42
    Writing library : libebml v1.0.0 + libmatroska v1.0.0

    Video
    ID : 2
    Format : AVC
    Format/Info : Advanced Video Codec
    Format profile : High@L3.1
    Format settings, CABAC : Yes
    Format settings, ReFrames : 5 frames
    Codec ID : V_MPEG4/ISO/AVC
    Duration : 42 min 51 s
    Bit rate : 1 435 kb/s
    Width : 720 pixels
    Height : 544 pixels
    Display aspect ratio : 4:3
    Frame rate mode : Constant
    Frame rate : 29.970 (30000/1001) FPS
    Color space : YUV
    Chroma subsampling : 4:2:0
    Bit depth : 8 bits
    Scan type : Progressive
    Bits/(Pixel*Frame) : 0.122
    Stream size : 429 MiB (77%)
    Writing library : x264 core 98 r1643 59a9e03
    Encoding settings : cabac=1 / ref=5 / deblock=1:-2:-1 / analyse=0x3:0x113 / me=umh / subme=8 / psy=1 / psy_rd=1.00:0.00 / mixed_ref=0 / me_range=16 / chroma_me=1 / trellis=1 / 8x8dct=1 / cqm=0 / deadzone=21,11 / fast_pskip=1 / chroma_qp_offset=-2 / threads=20 / sliced_threads=0 / nr=0 / decimate=1 / interlaced=0 / constrained_intra=0 / bframes=3 / b_pyramid=2 / b_adapt=1 / b_bias=0 / direct=1 / weightb=1 / weightp=2 / keyint=250 / keyint_min=25 / scenecut=40 / intra_refresh=0 / rc_lookahead=40 / rc=2pass / mbtree=1 / bitrate=1435 / ratetol=1.0 / qcomp=0.60 / qpmin=10 / qpmax=51 / qpstep=4 / cplxblur=20.0 / qblur=0.5 / ip_ratio=1.40 / aq=1:1.00
    Language : English
    Default : No
    Forced : No

    Audio
    ID : 1
    Format : AC-3
    Format/Info : Audio Coding 3
    Format settings, Endianness : Big
    Codec ID : A_AC3
    Duration : 42 min 51 s
    Bit rate mode : Constant
    Bit rate : 384 kb/s
    Channel(s) : 2 channels
    Channel positions : Front: L R
    Sampling rate : 48.0 kHz
    Frame rate : 31.250 FPS (1536 spf)
    Bit depth : 16 bits
    Compression mode : Lossy
    Stream size : 118 MiB (21%)
    Service kind : Complete Main
    Default : Yes
    Forced : No
    Hidden Content:
    You must either reply or click 'Like' to see the hidden information contained here.
     
  2. Loading...


  3. nino.navy

    nino.navy Well-Known Member

    Joined:
    May 30, 2014
    Messages:
    3,141
    Likes Received:
    184
    thanks a lot :D
     
  4. hanshermann

    hanshermann Well-Known Member Uploader

    Joined:
    Aug 24, 2016
    Messages:
    7,058
    Likes Received:
    11,782
    wahts taht
     
  5. nelsonsena

    nelsonsena New Member

    Joined:
    May 8, 2017
    Messages:
    27
    Likes Received:
    1
    OMG!!! Thanks!
     
  6. Dave

    Dave D4V3

    Joined:
    Jun 2, 2015
    Messages:
    1,651
    Likes Received:
    603
    gracias :)
     
  7. XWZZZZZ

    XWZZZZZ Member

    Joined:
    Aug 1, 2016
    Messages:
    192
    Likes Received:
    1
    thanks!
     
  8. FilthyMcNasty

    FilthyMcNasty Member

    Joined:
    Jan 17, 2016
    Messages:
    84
    Likes Received:
    7
  9. Encor388

    Encor388 Member

    Joined:
    Jul 2, 2016
    Messages:
    267
    Likes Received:
    10
    thanks
     
  10. marence87

    marence87 Well-Known Member

    Joined:
    Jun 15, 2016
    Messages:
    326
    Likes Received:
    376
  11. jinkx

    jinkx Member

    Joined:
    Jul 7, 2016
    Messages:
    60
    Likes Received:
    0
    thank you :D
     
  12. Amauri Luiz

    Amauri Luiz Well-Known Member

    Joined:
    Jan 14, 2014
    Messages:
    1,980
    Likes Received:
    80
    Thank you!
     
  13. carlos69

    carlos69 Well-Known Member

    Joined:
    Dec 17, 2013
    Messages:
    1,285
    Likes Received:
    95
    Sneaky
     
  14. saemcrh

    saemcrh Well-Known Member

    Joined:
    Jan 17, 2017
    Messages:
    482
    Likes Received:
    2,671
    Thanks!
     
  15. canminay

    canminay New Member

    Joined:
    Jun 14, 2017
    Messages:
    10
    Likes Received:
    1
    thank u
     
  16. vinniciusxux

    vinniciusxux Member

    Joined:
    Dec 20, 2015
    Messages:
    127
    Likes Received:
    23
    thanksss
     
  17. Prizm2016Vas

    Prizm2016Vas Member

    Joined:
    Jul 9, 2016
    Messages:
    554
    Likes Received:
    19
  18. RonyJob

    RonyJob Active Member

    Joined:
    Oct 1, 2016
    Messages:
    102
    Likes Received:
    95
    Thank You So much![​IMG]
    General
    Unique ID : 223538076886508254840902661298813559393 (0xA82BDE1AF1E3B2189DE2CB50C3266261)
    Complete name : VH1.Behind.The.Music.Christina.Aguilera.HR.PDTV.x264.mkv
    Format : Matroska
    Format version : Version 2
    File size : 558 MiB
    Duration : 42 min 51 s
    Overall bit rate : 1 821 kb/s
    Encoded date : UTC 2010-06-15 11:30:32
    Writing application : mkvmerge v4.0.0 ('The Stars were mine') built on Jun 6 2010 16:18:42
    Writing library : libebml v1.0.0 + libmatroska v1.0.0

    Video
    ID : 2
    Format : AVC
    Format/Info : Advanced Video Codec
    Format profile : High@L3.1
    Format settings, CABAC : Yes
    Format settings, ReFrames : 5 frames
    Codec ID : V_MPEG4/ISO/AVC
    Duration : 42 min 51 s
    Bit rate : 1 435 kb/s
    Width : 720 pixels
    Height : 544 pixels
    Display aspect ratio : 4:3
    Frame rate mode : Constant
    Frame rate : 29.970 (30000/1001) FPS
    Color space : YUV
    Chroma subsampling : 4:2:0
    Bit depth : 8 bits
    Scan type : Progressive
    Bits/(Pixel*Frame) : 0.122
    Stream size : 429 MiB (77%)
    Writing library : x264 core 98 r1643 59a9e03
    Encoding settings : cabac=1 / ref=5 / deblock=1:-2:-1 / analyse=0x3:0x113 / me=umh / subme=8 / psy=1 / psy_rd=1.00:0.00 / mixed_ref=0 / me_range=16 / chroma_me=1 / trellis=1 / 8x8dct=1 / cqm=0 / deadzone=21,11 / fast_pskip=1 / chroma_qp_offset=-2 / threads=20 / sliced_threads=0 / nr=0 / decimate=1 / interlaced=0 / constrained_intra=0 / bframes=3 / b_pyramid=2 / b_adapt=1 / b_bias=0 / direct=1 / weightb=1 / weightp=2 / keyint=250 / keyint_min=25 / scenecut=40 / intra_refresh=0 / rc_lookahead=40 / rc=2pass / mbtree=1 / bitrate=1435 / ratetol=1.0 / qcomp=0.60 / qpmin=10 / qpmax=51 / qpstep=4 / cplxblur=20.0 / qblur=0.5 / ip_ratio=1.40 / aq=1:1.00
    Language : English
    Default : No
    Forced : No

    Audio
    ID : 1
    Format : AC-3
    Format/Info : Audio Coding 3
    Format settings, Endianness : Big
    Codec ID : A_AC3
    Duration : 42 min 51 s
    Bit rate mode : Constant
    Bit rate : 384 kb/s
    Channel(s) : 2 channels
    Channel positions : Front: L R
    Sampling rate : 48.0 kHz
    Frame rate : 31.250 FPS (1536 spf)
    Bit depth : 16 bits
    Compression mode : Lossy
    Stream size : 118 MiB (21%)
    Service kind : Complete Main
    Default : Yes
    Forced : No
    ***Hidden content cannot be quoted.***
    [/QUOTE]
     
  19. jhonjhondown

    jhonjhondown Member

    Joined:
    Aug 14, 2016
    Messages:
    766
    Likes Received:
    19
  20. waat

    waat Member

    Joined:
    Jan 19, 2015
    Messages:
    474
    Likes Received:
    10
    Thank you
     
  21. issamtohme

    issamtohme Active Member

    Joined:
    Oct 14, 2015
    Messages:
    513
    Likes Received:
    215
    thanks