Veronica Vega ft. Pitbull - Wicked (TELEHIT.HD.1080i.DD2.0).-Crusha

Discussion in 'TELEHIT HD' started by Crusha, Feb 16, 2016.

  1. Crusha

    Crusha Well-Known Member Capper

    Joined:
    Oct 15, 2014
    Messages:
    2,350
    Likes Received:
    2,212
    [​IMG]

    Mediainfo
    General
    ID : 1 (0x1)
    Complete name : Veronica Vega ft. Pitbull - Wicked (TELEHIT.HD.1080i.DD2.0).-Crusha.ts
    Format : MPEG-TS
    File size : 146 MiB
    Duration : 5mn 3s
    Overall bit rate mode : Variable
    Overall bit rate : 4 034 Kbps

    Video
    ID : 2238 (0x8BE)
    Menu ID : 857 (0x359)
    Format : AVC
    Format/Info : Advanced Video Codec
    Format profile : [email protected]
    Format settings, CABAC : Yes
    Format settings, ReFrames : 4 frames
    Format settings, GOP : M=3, N=24
    Codec ID : 27
    Duration : 5mn 3s
    Bit rate : 3 640 Kbps
    Width : 1 920 pixels
    Height : 1 080 pixels
    Display aspect ratio : 16:9
    Frame rate : 29.970 fps
    Standard : Component
    Color space : YUV
    Chroma subsampling : 4:2:0
    Bit depth : 8 bits
    Scan type : MBAFF
    Bits/(Pixel*Frame) : 0.059
    Stream size : 132 MiB (90%)
    Color range : Limited
    Color primaries : BT.709
    Transfer characteristics : BT.709
    Matrix coefficients : BT.709

    Audio
    ID : 3849 (0xF09)
    Menu ID : 857 (0x359)
    Format : AC-3
    Format/Info : Audio Coding 3
    Mode extension : CM (complete main)
    Format settings, Endianness : Big
    Codec ID : 6
    Duration : 5mn 3s
    Bit rate mode : Constant
    Bit rate : 192 Kbps
    Channel(s) : 2 channels
    Channel positions : Front: L R
    Sampling rate : 48.0 KHz
    Bit depth : 16 bits
    Compression mode : Lossy
    Stream size : 6.94 MiB (5%)
    Language : English

    Hidden Content:
    You must reply before you can see the hidden data contained here.
    Password:
    crusha
     
    mohammad305 and BadGuy like this.
  2. tf135

    tf135 Well-Known Member

    Joined:
    Nov 14, 2014
    Messages:
    1,722
    Likes Received:
    103
    thank you
     
  3. mohammad305

    mohammad305 New Member

    Joined:
    Jan 27, 2015
    Messages:
    8
    Likes Received:
    0
    thank you
     
  4. rus31

    rus31 Member

    Joined:
    May 20, 2016
    Messages:
    206
    Likes Received:
    11
    thanks
     
  5. khan

    khan Well-Known Member

    Joined:
    May 11, 2014
    Messages:
    1,111
    Likes Received:
    63
    thanks
     
  6. HaDi056

    HaDi056 Member

    Joined:
    Aug 27, 2016
    Messages:
    39
    Likes Received:
    0
    thanks
     
  7. arman90

    arman90 Member

    Joined:
    Feb 25, 2017
    Messages:
    72
    Likes Received:
    1
    thank u