DVD Vanilla Ninja - Best Of (DVD) x08 [VOB Files]

Discussion in 'SD' started by claudio1301, Nov 21, 2020.

  1. claudio1301

    claudio1301 Well-Known Member V . I . P.

    Joined:
    Oct 2, 2018
    Messages:
    1,488
    Likes Received:
    3,366
    Host: Mediafire

    [​IMG]
    1. Tough Enough
    2. Don't Go Too Fast
    3. Liar
    4. When The Indians Cry
    5. Blue Tattoo
    6. I Know
    7. Cool Vibes
    8. I Know (Acoustic Version)


    1.Tough Enough
    [​IMG]
    Code:
    General
    Complete name                  : Vanilla Ninja - Tough Enough (Best Of DVD).VOB
    Format                         : MPEG-PS
    File size                      : 208 MiB
    Duration                       : 3 min 23 s
    Overall bit rate mode          : Variable
    Overall bit rate               : 8 587 kb/s
    
    Video
    ID                             : 224 (0xE0)
    Format                         : MPEG Video
    Format version                 : Version 2
    Format profile                 : Main@Main
    Format settings                : CustomMatrix / BVOP
    Format settings, BVOP          : Yes
    Format settings, Matrix        : Custom
    Format settings, GOP           : Variable
    Format settings, picture struc : Frame
    Duration                       : 3 min 23 s
    Bit rate mode                  : Variable
    Bit rate                       : 7 968 kb/s
    Maximum bit rate               : 9 800 kb/s
    Width                          : 720 pixels
    Height                         : 576 pixels
    Display aspect ratio           : 4:3
    Frame rate                     : 25.000 FPS
    Standard                       : PAL
    Color space                    : YUV
    Chroma subsampling             : 4:2:0
    Bit depth                      : 8 bits
    Scan type                      : Interlaced
    Scan order                     : Top Field First
    Compression mode               : Lossy
    Bits/(Pixel*Frame)             : 0.768
    Stream size                    : 193 MiB (93%)
    
    Audio
    ID                             : 189 (0xBD)-128 (0x80)
    Format                         : AC-3
    Format/Info                    : Audio Coding 3
    Commercial name                : Dolby Digital
    Muxing mode                    : DVD-Video
    Duration                       : 3 min 23 s
    Bit rate mode                  : Constant
    Bit rate                       : 448 kb/s
    Channel(s)                     : 2 channels
    Channel layout                 : L R
    Sampling rate                  : 48.0 kHz
    Frame rate                     : 31.250 FPS (1536 SPF)
    Compression mode               : Lossy
    Stream size                    : 10.9 MiB (5%)
    Service kind                   : Complete Main
    
    Menu
    Hidden Content:
    You must reply before you can see the hidden data contained here.
    2. Don't Go Too Fast
    [​IMG]
    Code:
    General
    Complete name                  : Vanilla Ninja - Don't Go Too Far (Best Of DVD).VOB
    Format                         : MPEG-PS
    File size                      : 198 MiB
    Duration                       : 3 min 14 s
    Overall bit rate mode          : Variable
    Overall bit rate               : 8 546 kb/s
    
    Video
    ID                             : 224 (0xE0)
    Format                         : MPEG Video
    Format version                 : Version 2
    Format profile                 : Main@Main
    Format settings                : CustomMatrix / BVOP
    Format settings, BVOP          : Yes
    Format settings, Matrix        : Custom
    Format settings, GOP           : M=3, N=12
    Format settings, picture struc : Frame
    Duration                       : 3 min 14 s
    Bit rate mode                  : Variable
    Bit rate                       : 7 927 kb/s
    Maximum bit rate               : 9 800 kb/s
    Width                          : 720 pixels
    Height                         : 576 pixels
    Display aspect ratio           : 4:3
    Frame rate                     : 25.000 FPS
    Standard                       : PAL
    Color space                    : YUV
    Chroma subsampling             : 4:2:0
    Bit depth                      : 8 bits
    Scan type                      : Interlaced
    Scan order                     : Top Field First
    Compression mode               : Lossy
    Bits/(Pixel*Frame)             : 0.765
    Stream size                    : 184 MiB (93%)
    
    Audio
    ID                             : 189 (0xBD)-128 (0x80)
    Format                         : AC-3
    Format/Info                    : Audio Coding 3
    Commercial name                : Dolby Digital
    Muxing mode                    : DVD-Video
    Duration                       : 3 min 14 s
    Bit rate mode                  : Constant
    Bit rate                       : 448 kb/s
    Channel(s)                     : 2 channels
    Channel layout                 : L R
    Sampling rate                  : 48.0 kHz
    Frame rate                     : 31.250 FPS (1536 SPF)
    Compression mode               : Lossy
    Delay relative to video        : -168 ms
    Stream size                    : 10.4 MiB (5%)
    Service kind                   : Complete Main
    
    Menu
    Hidden Content:
    You must reply before you can see the hidden data contained here.
    3. Liar
    [​IMG]
    Code:
    General
    Complete name                  : Vanilla Ninja - Liar (Best Of DVD).VOB
    Format                         : MPEG-PS
    File size                      : 222 MiB
    Duration                       : 3 min 36 s
    Overall bit rate mode          : Variable
    Overall bit rate               : 8 604 kb/s
    
    Video
    ID                             : 224 (0xE0)
    Format                         : MPEG Video
    Format version                 : Version 2
    Format profile                 : Main@Main
    Format settings                : CustomMatrix / BVOP
    Format settings, BVOP          : Yes
    Format settings, Matrix        : Custom
    Format settings, GOP           : M=3, N=12
    Format settings, picture struc : Frame
    Duration                       : 3 min 36 s
    Bit rate mode                  : Variable
    Bit rate                       : 7 985 kb/s
    Maximum bit rate               : 9 800 kb/s
    Width                          : 720 pixels
    Height                         : 576 pixels
    Display aspect ratio           : 4:3
    Frame rate                     : 25.000 FPS
    Standard                       : PAL
    Color space                    : YUV
    Chroma subsampling             : 4:2:0
    Bit depth                      : 8 bits
    Scan type                      : Interlaced
    Scan order                     : Top Field First
    Compression mode               : Lossy
    Bits/(Pixel*Frame)             : 0.770
    Stream size                    : 206 MiB (93%)
    
    Audio
    ID                             : 189 (0xBD)-128 (0x80)
    Format                         : AC-3
    Format/Info                    : Audio Coding 3
    Commercial name                : Dolby Digital
    Muxing mode                    : DVD-Video
    Duration                       : 3 min 36 s
    Bit rate mode                  : Constant
    Bit rate                       : 448 kb/s
    Channel(s)                     : 2 channels
    Channel layout                 : L R
    Sampling rate                  : 48.0 kHz
    Frame rate                     : 31.250 FPS (1536 SPF)
    Compression mode               : Lossy
    Delay relative to video        : -168 ms
    Stream size                    : 11.6 MiB (5%)
    Service kind                   : Complete Main
    
    Menu
    Hidden Content:
    You must reply before you can see the hidden data contained here.
    4. When The Indians Cry
    [​IMG]
    Code:
    General
    Complete name                  : Vanilla Ninja - When The Indians Cry (Best Of DVD).VOB
    Format                         : MPEG-PS
    File size                      : 219 MiB
    Duration                       : 3 min 33 s
    Overall bit rate mode          : Variable
    Overall bit rate               : 8 593 kb/s
    
    Video
    ID                             : 224 (0xE0)
    Format                         : MPEG Video
    Format version                 : Version 2
    Format profile                 : Main@Main
    Format settings                : CustomMatrix / BVOP
    Format settings, BVOP          : Yes
    Format settings, Matrix        : Custom
    Format settings, GOP           : M=3, N=12
    Format settings, picture struc : Frame
    Duration                       : 3 min 33 s
    Bit rate mode                  : Variable
    Bit rate                       : 7 974 kb/s
    Maximum bit rate               : 9 800 kb/s
    Width                          : 720 pixels
    Height                         : 576 pixels
    Display aspect ratio           : 4:3
    Frame rate                     : 25.000 FPS
    Standard                       : PAL
    Color space                    : YUV
    Chroma subsampling             : 4:2:0
    Bit depth                      : 8 bits
    Scan type                      : Interlaced
    Scan order                     : Top Field First
    Compression mode               : Lossy
    Bits/(Pixel*Frame)             : 0.769
    Stream size                    : 203 MiB (93%)
    
    Audio
    ID                             : 189 (0xBD)-128 (0x80)
    Format                         : AC-3
    Format/Info                    : Audio Coding 3
    Commercial name                : Dolby Digital
    Muxing mode                    : DVD-Video
    Duration                       : 3 min 33 s
    Bit rate mode                  : Constant
    Bit rate                       : 448 kb/s
    Channel(s)                     : 2 channels
    Channel layout                 : L R
    Sampling rate                  : 48.0 kHz
    Frame rate                     : 31.250 FPS (1536 SPF)
    Compression mode               : Lossy
    Delay relative to video        : -24 ms
    Stream size                    : 11.4 MiB (5%)
    Service kind                   : Complete Main
    
    Menu
    Hidden Content:
    You must reply before you can see the hidden data contained here.
    5. Blue Tattoo
    [​IMG]
    Code:
    General
    Complete name                  : Vanilla Ninja - Blue Tattoo (Best Of DVD).VOB
    Format                         : MPEG-PS
    File size                      : 256 MiB
    Duration                       : 4 min 10 s
    Overall bit rate mode          : Variable
    Overall bit rate               : 8 592 kb/s
    
    Video
    ID                             : 224 (0xE0)
    Format                         : MPEG Video
    Format version                 : Version 2
    Format profile                 : Main@Main
    Format settings                : CustomMatrix / BVOP
    Format settings, BVOP          : Yes
    Format settings, Matrix        : Custom
    Format settings, GOP           : M=3, N=12
    Format settings, picture struc : Frame
    Duration                       : 4 min 10 s
    Bit rate mode                  : Variable
    Bit rate                       : 7 973 kb/s
    Maximum bit rate               : 9 800 kb/s
    Width                          : 720 pixels
    Height                         : 576 pixels
    Display aspect ratio           : 4:3
    Frame rate                     : 25.000 FPS
    Standard                       : PAL
    Color space                    : YUV
    Chroma subsampling             : 4:2:0
    Bit depth                      : 8 bits
    Scan type                      : Interlaced
    Scan order                     : Top Field First
    Compression mode               : Lossy
    Bits/(Pixel*Frame)             : 0.769
    Stream size                    : 238 MiB (93%)
    
    Audio
    ID                             : 189 (0xBD)-128 (0x80)
    Format                         : AC-3
    Format/Info                    : Audio Coding 3
    Commercial name                : Dolby Digital
    Muxing mode                    : DVD-Video
    Duration                       : 4 min 10 s
    Bit rate mode                  : Constant
    Bit rate                       : 448 kb/s
    Channel(s)                     : 2 channels
    Channel layout                 : L R
    Sampling rate                  : 48.0 kHz
    Frame rate                     : 31.250 FPS (1536 SPF)
    Compression mode               : Lossy
    Delay relative to video        : -16 ms
    Stream size                    : 13.4 MiB (5%)
    Service kind                   : Complete Main
    
    Menu
    Hidden Content:
    You must reply before you can see the hidden data contained here.
    6. I Know
    [​IMG]
    Code:
    General
    Complete name                  : Vanilla Ninja - I Know (Best Of DVD).VOB
    Format                         : MPEG-PS
    File size                      : 210 MiB
    Duration                       : 3 min 25 s
    Overall bit rate mode          : Variable
    Overall bit rate               : 8 592 kb/s
    
    Video
    ID                             : 224 (0xE0)
    Format                         : MPEG Video
    Format version                 : Version 2
    Format profile                 : Main@Main
    Format settings                : CustomMatrix / BVOP
    Format settings, BVOP          : Yes
    Format settings, Matrix        : Custom
    Format settings, GOP           : M=3, N=12
    Format settings, picture struc : Frame
    Duration                       : 3 min 25 s
    Bit rate mode                  : Variable
    Bit rate                       : 7 973 kb/s
    Maximum bit rate               : 9 800 kb/s
    Width                          : 720 pixels
    Height                         : 576 pixels
    Display aspect ratio           : 4:3
    Frame rate                     : 25.000 FPS
    Standard                       : PAL
    Color space                    : YUV
    Chroma subsampling             : 4:2:0
    Bit depth                      : 8 bits
    Scan type                      : Interlaced
    Scan order                     : Top Field First
    Compression mode               : Lossy
    Bits/(Pixel*Frame)             : 0.769
    Stream size                    : 195 MiB (93%)
    
    Audio
    ID                             : 189 (0xBD)-128 (0x80)
    Format                         : AC-3
    Format/Info                    : Audio Coding 3
    Commercial name                : Dolby Digital
    Muxing mode                    : DVD-Video
    Duration                       : 3 min 25 s
    Bit rate mode                  : Constant
    Bit rate                       : 448 kb/s
    Channel(s)                     : 2 channels
    Channel layout                 : L R
    Sampling rate                  : 48.0 kHz
    Frame rate                     : 31.250 FPS (1536 SPF)
    Compression mode               : Lossy
    Delay relative to video        : -48 ms
    Stream size                    : 11.0 MiB (5%)
    Service kind                   : Complete Main
    
    Menu
    Hidden Content:
    You must reply before you can see the hidden data contained here.
    7. Cool Vibes
    [​IMG]
    Code:
    General
    Complete name                  : Vanilla Ninja - Cool Vibes (Best Of DVD).VOB
    Format                         : MPEG-PS
    File size                      : 221 MiB
    Duration                       : 3 min 35 s
    Overall bit rate mode          : Variable
    Overall bit rate               : 8 590 kb/s
    
    Video
    ID                             : 224 (0xE0)
    Format                         : MPEG Video
    Format version                 : Version 2
    Format profile                 : Main@Main
    Format settings                : CustomMatrix / BVOP
    Format settings, BVOP          : Yes
    Format settings, Matrix        : Custom
    Format settings, GOP           : M=3, N=12
    Format settings, picture struc : Frame
    Duration                       : 3 min 35 s
    Bit rate mode                  : Variable
    Bit rate                       : 7 971 kb/s
    Maximum bit rate               : 9 800 kb/s
    Width                          : 720 pixels
    Height                         : 576 pixels
    Display aspect ratio           : 4:3
    Frame rate                     : 25.000 FPS
    Standard                       : PAL
    Color space                    : YUV
    Chroma subsampling             : 4:2:0
    Bit depth                      : 8 bits
    Scan type                      : Interlaced
    Scan order                     : Top Field First
    Compression mode               : Lossy
    Bits/(Pixel*Frame)             : 0.769
    Stream size                    : 205 MiB (93%)
    
    Audio
    ID                             : 189 (0xBD)-128 (0x80)
    Format                         : AC-3
    Format/Info                    : Audio Coding 3
    Commercial name                : Dolby Digital
    Muxing mode                    : DVD-Video
    Duration                       : 3 min 35 s
    Bit rate mode                  : Constant
    Bit rate                       : 448 kb/s
    Channel(s)                     : 2 channels
    Channel layout                 : L R
    Sampling rate                  : 48.0 kHz
    Frame rate                     : 31.250 FPS (1536 SPF)
    Compression mode               : Lossy
    Delay relative to video        : -40 ms
    Stream size                    : 11.5 MiB (5%)
    Service kind                   : Complete Main
    
    Menu
    Hidden Content:
    You must reply before you can see the hidden data contained here.
    8. I Know (Acoustic Version)
    [​IMG]
    Code:
    General
    Complete name                  : Vanilla Ninja - I Know (Acoust Version) (Best Of DVD).VOB
    Format                         : MPEG-PS
    File size                      : 159 MiB
    Duration                       : 3 min 25 s
    Overall bit rate mode          : Variable
    Overall bit rate               : 6 507 kb/s
    
    Video
    ID                             : 224 (0xE0)
    Format                         : MPEG Video
    Format version                 : Version 2
    Format profile                 : Main@Main
    Format settings                : CustomMatrix / BVOP
    Format settings, BVOP          : Yes
    Format settings, Matrix        : Custom
    Format settings, GOP           : M=3, N=12
    Format settings, picture struc : Frame
    Duration                       : 3 min 25 s
    Bit rate mode                  : Variable
    Bit rate                       : 5 930 kb/s
    Maximum bit rate               : 9 800 kb/s
    Width                          : 720 pixels
    Height                         : 576 pixels
    Display aspect ratio           : 4:3
    Frame rate                     : 25.000 FPS
    Standard                       : PAL
    Color space                    : YUV
    Chroma subsampling             : 4:2:0
    Bit depth                      : 8 bits
    Scan type                      : Interlaced
    Scan order                     : Top Field First
    Compression mode               : Lossy
    Bits/(Pixel*Frame)             : 0.572
    Stream size                    : 145 MiB (91%)
    
    Audio
    ID                             : 189 (0xBD)-128 (0x80)
    Format                         : AC-3
    Format/Info                    : Audio Coding 3
    Commercial name                : Dolby Digital
    Muxing mode                    : DVD-Video
    Duration                       : 3 min 25 s
    Bit rate mode                  : Constant
    Bit rate                       : 448 kb/s
    Channel(s)                     : 2 channels
    Channel layout                 : L R
    Sampling rate                  : 48.0 kHz
    Frame rate                     : 31.250 FPS (1536 SPF)
    Compression mode               : Lossy
    Delay relative to video        : -48 ms
    Stream size                    : 11.0 MiB (7%)
    Service kind                   : Complete Main
    
    Menu
    Hidden Content:
    You must reply before you can see the hidden data contained here.
     
    Last edited: Nov 21, 2020
  2. Loading...


  3. jb13

    jb13 Well-Known Member

    Joined:
    Oct 24, 2017
    Messages:
    1,433
    Likes Received:
    66
    gracias
     
  4. Ductamun

    Ductamun Member

    Joined:
    Apr 13, 2019
    Messages:
    479
    Likes Received:
    18
    Thanks bro !
     
  5. quake360

    quake360 Active Member

    Joined:
    Feb 1, 2020
    Messages:
    501
    Likes Received:
    30
  6. multimediafm

    multimediafm Well-Known Member Archiver Donor

    Joined:
    Mar 27, 2014
    Messages:
    18,791
    Likes Received:
    1,872