WEB-RiP VA - Elton John ~I'm Still Standing~ A Grammy Salute - 2018-04-10 (1080p)

Discussion in 'Interviews / TV shows / Others' started by Hyrus, Apr 11, 2018.

  1. hanyusen1989

    hanyusen1989 Member

    Joined:
    Oct 1, 2016
    Messages:
    393
    Likes Received:
    24
    thank you so much
     
  2. giacomoisabella1996

    giacomoisabella1996 Member

    Joined:
    Jan 13, 2017
    Messages:
    488
    Likes Received:
    12
    yaaaaaaaaaaas gaga
     
  3. johnnosolo

    johnnosolo Member

    Joined:
    Dec 18, 2015
    Messages:
    632
    Likes Received:
    17
  4. johnwayne

    johnwayne Active Member

    Joined:
    Nov 1, 2016
    Messages:
    149
    Likes Received:
    172
  5. isham023

    isham023 Well-Known Member

    Joined:
    Nov 30, 2013
    Messages:
    2,528
    Likes Received:
    70
  6. tf135

    tf135 Well-Known Member

    Joined:
    Nov 14, 2014
    Messages:
    3,268
    Likes Received:
    194
    thanks
     
  7. avo8975

    avo8975 Member

    Joined:
    May 29, 2017
    Messages:
    39
    Likes Received:
    6
    [


    nicccccce
    QUOTE="Hyrus, post: 956589, member: 6400"]Recorded: 2018-01-30
    Date aired: 2018-04-10

    > About this show:
    The concert showcases musicians from multiple genres performing classic songs made famous by Elton John, including Alessia Cara, Miley Cyrus, Lady Gaga, Miranda Lambert, John Legend, Kesha, Little Big Town, Chris Martin, Shawn Mendes, Maren Morris, Ed Sheeran, Sam Smith and SZA.
    The concert also features special appearances by Jon Batiste, Neil Patrick Harris, Christopher Jackson, Anna Kendrick, Gayle King, Lucy Liu, Valerie Simpson and Hailee Steinfeld. In addition, John takes the stage to perform a medley of his timeless hits.

    [​IMG]
    [​IMG]
    [​IMG]
    [​IMG]
    [​IMG]
    [​IMG]
    [​IMG]
    [​IMG]
    [​IMG]

    Thumbnails:
    [​IMG]
    Video
    ID : 1
    Format : AVC
    Format/Info : Advanced Video Codec
    Format profile : High@L4
    Format settings, CABAC : Yes
    Format settings, ReFrames : 4 frames
    Codec ID : V_MPEG4/ISO/AVC
    Duration : 1 h 28 min
    Bit rate : 4 500 kb/s
    Width : 1 920 pixels
    Height : 1 080 pixels
    Display aspect ratio : 16:9
    Frame rate mode : Constant
    Frame rate : 29.970 (30000/1001) FPS
    Color space : YUV
    Chroma subsampling : 4:2:0
    Bit depth : 8 bits
    Scan type : Progressive
    Bits/(Pixel*Frame) : 0.072
    Stream size : 2.71 GiB (97%)
    Writing library : x264 core 148
    Encoding settings : cabac=1 / ref=4 / deblock=1:0:0 / analyse=0x3:0x113 / me=hex / subme=8 / psy=1 / psy_rd=1.00:0.00 / mixed_ref=1 / me_range=16 / chroma_me=1 / trellis=2 / 8x8dct=1 / cqm=0 / deadzone=21,11 / fast_pskip=1 / chroma_qp_offset=-2 / threads=34 / lookahead_threads=5 / sliced_threads=0 / nr=0 / decimate=1 / interlaced=0 / bluray_compat=0 / constrained_intra=0 / bframes=3 / b_pyramid=2 / b_adapt=1 / b_bias=0 / direct=3 / weightb=1 / open_gop=0 / weightp=2 / keyint=60 / keyint_min=6 / scenecut=0 / intra_refresh=0 / rc_lookahead=50 / rc=abr / mbtree=1 / bitrate=4500 / ratetol=1.0 / qcomp=0.60 / qpmin=0 / qpmax=69 / qpstep=4 / vbv_maxrate=5400 / vbv_bufsize=4500 / nal_hrd=none / filler=0 / ip_ratio=1.40 / aq=1:1.00

    Audio
    ID : 2
    Format : AAC
    Format/Info : Advanced Audio Codec
    Format profile : LC
    Codec ID : A_AAC
    Duration : 1 h 28 min
    Bit rate : 125 kb/s
    Channel(s) : 2 channels
    Channel positions : Front: L R
    Sampling rate : 48.0 kHz
    Frame rate : 46.875 FPS (1024 spf)
    Compression mode : Lossy
    Delay relative to video : -66 ms
    Stream size : 79.5 MiB (3%)

    Download Links:
    ***Hidden content cannot be quoted.***


    Ripped by TBS.[/QUOTE]
     
  8. mpluk

    mpluk Member

    Joined:
    Oct 21, 2016
    Messages:
    53
    Likes Received:
    4
    The quality of this looks great. Thanks for sharing.
     
  9. rudolfwhite

    rudolfwhite Member

    Joined:
    Nov 27, 2014
    Messages:
    142
    Likes Received:
    4
  10. sinshin

    sinshin Active Member

    Joined:
    Jan 27, 2015
    Messages:
    134
    Likes Received:
    69
    thanks
     
  11. bloodyhunghuynh

    bloodyhunghuynh Member

    Joined:
    Dec 18, 2016
    Messages:
    64
    Likes Received:
    2
  12. sanata355

    sanata355 Member

    Joined:
    Feb 4, 2018
    Messages:
    39
    Likes Received:
    0
  13. robenn

    robenn Active Member

    Joined:
    May 29, 2014
    Messages:
    680
    Likes Received:
    76
    Thank you!
     
  14. jojo335

    jojo335 Member

    Joined:
    Jan 18, 2017
    Messages:
    298
    Likes Received:
    10
    thanks!
     
  15. sydlev

    sydlev Member

    Joined:
    Nov 9, 2015
    Messages:
    59
    Likes Received:
    4
    thanks!
     
  16. aaron

    aaron Active Member

    Joined:
    Dec 17, 2013
    Messages:
    246
    Likes Received:
    177
    thanks
     
  17. Stev007

    Stev007 Member

    Joined:
    May 2, 2014
    Messages:
    179
    Likes Received:
    7
    thank you
     
  18. narltv2

    narltv2 Member

    Joined:
    Apr 20, 2017
    Messages:
    94
    Likes Received:
    5
    thanks
     
  19. carlosgerm

    carlosgerm Member

    Joined:
    Mar 16, 2016
    Messages:
    58
    Likes Received:
    1
  20. s1sav

    s1sav Member

    Joined:
    Feb 27, 2014
    Messages:
    168
    Likes Received:
    11
    Thank you.