FEED VA - 10X performances - iHeart Wango Tango 6-2-2018 BACKHAUL 1080i h264 MPA2.0-ALANiS

Discussion in 'HD Live Performances' started by KaiKawaii, Jun 13, 2018.

  1. KaiKawaii

    KaiKawaii Well-Known Member Uploader

    Joined:
    Jun 1, 2017
    Messages:
    480
    Likes Received:
    659
    [​IMG]
    [​IMG]

    [​IMG]
    Code:
    General
    ID                             : 1 (0x1)
    Complete name                  : D:\01 Sabrina Carpenter - Almost Love -  iHeart Wango Tango 6-2-2018 BACKHAUL 1080i h264 MPA2.0-ALANiS.ts
    Format                         : MPEG-TS
    File size                      : 492 MiB
    Duration                       : 4 min 19 s
    Overall bit rate mode          : Variable
    Overall bit rate               : 15.8 Mb/s
    
    Video
    ID                             : 65 (0x41)
    Menu ID                        : 1 (0x1)
    Format                         : AVC
    Format/Info                    : Advanced Video Codec
    Format profile                 : High@L4.1
    Format settings, CABAC         : Yes
    Format settings, RefFrames     : 4 frames
    Codec ID                       : 27
    Duration                       : 4 min 19 s
    Bit rate                       : 12.1 Mb/s
    Width                          : 1 920 pixels
    Height                         : 1 080 pixels
    Display aspect ratio           : 16:9
    Frame rate                     : 29.970 (30000/1001) FPS
    Standard                       : Component
    Color space                    : YUV
    Chroma subsampling             : 4:2:0
    Bit depth                      : 8 bits
    Scan type                      : MBAFF
    Scan type, store method        : Interleaved fields
    Scan order                     : Top Field First
    Bits/(Pixel*Frame)             : 0.195
    Stream size                    : 376 MiB (77%)
    Color range                    : Limited
    Color primaries                : BT.709
    Transfer characteristics       : BT.709
    Matrix coefficients            : BT.709
    
    Audio #1
    ID                             : 68 (0x44)
    Menu ID                        : 1 (0x1)
    Format                         : MPEG Audio
    Format version                 : Version 1
    Format profile                 : Layer 2
    Codec ID                       : 3
    Duration                       : 4 min 19 s
    Bit rate mode                  : Constant
    Bit rate                       : 192 kb/s
    Channel(s)                     : 2 channels
    Sampling rate                  : 48.0 kHz
    Compression mode               : Lossy
    Delay relative to video        : 2 ms
    Stream size                    : 5.95 MiB (1%)
    Language                       : English
    
    Audio #2
    ID                             : 69 (0x45)
    Menu ID                        : 1 (0x1)
    Format                         : MPEG Audio
    Format version                 : Version 1
    Format profile                 : Layer 2
    Codec ID                       : 3
    Duration                       : 4 min 19 s
    Bit rate mode                  : Constant
    Bit rate                       : 384 kb/s
    Channel(s)                     : 2 channels
    Sampling rate                  : 48.0 kHz
    Compression mode               : Lossy
    Delay relative to video        : 2 ms
    Stream size                    : 11.9 MiB (2%)
    Language                       : English
    
    Audio #3
    ID                             : 70 (0x46)
    Menu ID                        : 1 (0x1)
    Format                         : MPEG Audio
    Format version                 : Version 1
    Format profile                 : Layer 2
    Codec ID                       : 3
    Duration                       : 4 min 19 s
    Bit rate mode                  : Constant
    Bit rate                       : 384 kb/s
    Channel(s)                     : 2 channels
    Sampling rate                  : 48.0 kHz
    Compression mode               : Lossy
    Delay relative to video        : 2 ms
    Stream size                    : 11.9 MiB (2%)
    Language                       : English
    
    Audio #4
    ID                             : 71 (0x47)
    Menu ID                        : 1 (0x1)
    Format                         : MPEG Audio
    Format version                 : Version 1
    Format profile                 : Layer 2
    Codec ID                       : 3
    Duration                       : 4 min 19 s
    Bit rate mode                  : Constant
    Bit rate                       : 384 kb/s
    Channel(s)                     : 2 channels
    Sampling rate                  : 48.0 kHz
    Compression mode               : Lossy
    Delay relative to video        : 2 ms
    Stream size                    : 11.9 MiB (2%)
    Language                       : English
    
    Audio #5
    ID                             : 74 (0x4A)
    Menu ID                        : 1 (0x1)
    Format                         : MPEG Audio
    Format version                 : Version 1
    Format profile                 : Layer 2
    Codec ID                       : 3
    Duration                       : 4 min 19 s
    Bit rate mode                  : Constant
    Bit rate                       : 384 kb/s
    Channel(s)                     : 2 channels
    Sampling rate                  : 48.0 kHz
    Compression mode               : Lossy
    Delay relative to video        : 2 ms
    Stream size                    : 11.9 MiB (2%)
    Language                       : English
    
    Audio #6
    ID                             : 75 (0x4B)
    Menu ID                        : 1 (0x1)
    Format                         : MPEG Audio
    Format version                 : Version 1
    Format profile                 : Layer 2
    Codec ID                       : 3
    Duration                       : 4 min 19 s
    Bit rate mode                  : Constant
    Bit rate                       : 384 kb/s
    Channel(s)                     : 2 channels
    Sampling rate                  : 48.0 kHz
    Compression mode               : Lossy
    Delay relative to video        : 2 ms
    Stream size                    : 11.9 MiB (2%)
    Language                       : English
    
    Audio #7
    ID                             : 76 (0x4C)
    Menu ID                        : 1 (0x1)
    Format                         : MPEG Audio
    Format version                 : Version 1
    Format profile                 : Layer 2
    Codec ID                       : 3
    Duration                       : 4 min 19 s
    Bit rate mode                  : Constant
    Bit rate                       : 384 kb/s
    Channel(s)                     : 2 channels
    Sampling rate                  : 48.0 kHz
    Compression mode               : Lossy
    Delay relative to video        : 2 ms
    Stream size                    : 11.9 MiB (2%)
    Language                       : English
    
    Audio #8
    ID                             : 77 (0x4D)
    Menu ID                        : 1 (0x1)
    Format                         : MPEG Audio
    Format version                 : Version 1
    Format profile                 : Layer 2
    Codec ID                       : 3
    Duration                       : 4 min 19 s
    Bit rate mode                  : Constant
    Bit rate                       : 384 kb/s
    Channel(s)                     : 2 channels
    Sampling rate                  : 48.0 kHz
    Compression mode               : Lossy
    Delay relative to video        : 2 ms
    Stream size                    : 11.9 MiB (2%)
    Language                       : English
    Hidden Content:
    You must reply before you can see the hidden data contained here.

    [​IMG] [​IMG]

    [​IMG]
    Code:
    General
    ID                             : 1 (0x1)
    Complete name                  : D:\02 Janelle Monáe - iHeart Wango Tango 6-2-2018 BACKHAUL 1080i h264 MPA2.0-ALANiS.ts
    Format                         : MPEG-TS
    File size                      : 1.36 GiB
    Duration                       : 12 min 18 s
    Overall bit rate mode          : Variable
    Overall bit rate               : 15.8 Mb/s
    
    Video
    ID                             : 65 (0x41)
    Menu ID                        : 1 (0x1)
    Format                         : AVC
    Format/Info                    : Advanced Video Codec
    Format profile                 : High@L4.1
    Format settings, CABAC         : Yes
    Format settings, RefFrames     : 4 frames
    Codec ID                       : 27
    Duration                       : 12 min 13 s
    Bit rate                       : 12.1 Mb/s
    Width                          : 1 920 pixels
    Height                         : 1 080 pixels
    Display aspect ratio           : 16:9
    Frame rate                     : 29.970 (30000/1001) FPS
    Standard                       : Component
    Color space                    : YUV
    Chroma subsampling             : 4:2:0
    Bit depth                      : 8 bits
    Scan type                      : MBAFF
    Scan type, store method        : Interleaved fields
    Scan order                     : Top Field First
    Bits/(Pixel*Frame)             : 0.195
    Stream size                    : 1.03 GiB (76%)
    Color range                    : Limited
    Color primaries                : BT.709
    Transfer characteristics       : BT.709
    Matrix coefficients            : BT.709
    
    Audio #1
    ID                             : 68 (0x44)
    Menu ID                        : 1 (0x1)
    Format                         : MPEG Audio
    Format version                 : Version 1
    Format profile                 : Layer 2
    Codec ID                       : 3
    Duration                       : 12 min 18 s
    Bit rate mode                  : Constant
    Bit rate                       : 192 kb/s
    Channel(s)                     : 2 channels
    Sampling rate                  : 48.0 kHz
    Compression mode               : Lossy
    Delay relative to video        : 7 ms
    Stream size                    : 16.9 MiB (1%)
    Language                       : English
    
    Audio #2
    ID                             : 69 (0x45)
    Menu ID                        : 1 (0x1)
    Format                         : MPEG Audio
    Format version                 : Version 1
    Format profile                 : Layer 2
    Codec ID                       : 3
    Duration                       : 12 min 18 s
    Bit rate mode                  : Constant
    Bit rate                       : 384 kb/s
    Channel(s)                     : 2 channels
    Sampling rate                  : 48.0 kHz
    Compression mode               : Lossy
    Delay relative to video        : 7 ms
    Stream size                    : 33.8 MiB (2%)
    Language                       : English
    
    Audio #3
    ID                             : 70 (0x46)
    Menu ID                        : 1 (0x1)
    Format                         : MPEG Audio
    Format version                 : Version 1
    Format profile                 : Layer 2
    Codec ID                       : 3
    Duration                       : 12 min 18 s
    Bit rate mode                  : Constant
    Bit rate                       : 384 kb/s
    Channel(s)                     : 2 channels
    Sampling rate                  : 48.0 kHz
    Compression mode               : Lossy
    Delay relative to video        : 7 ms
    Stream size                    : 33.8 MiB (2%)
    Language                       : English
    
    Audio #4
    ID                             : 71 (0x47)
    Menu ID                        : 1 (0x1)
    Format                         : MPEG Audio
    Format version                 : Version 1
    Format profile                 : Layer 2
    Codec ID                       : 3
    Duration                       : 12 min 18 s
    Bit rate mode                  : Constant
    Bit rate                       : 384 kb/s
    Channel(s)                     : 2 channels
    Sampling rate                  : 48.0 kHz
    Compression mode               : Lossy
    Delay relative to video        : 7 ms
    Stream size                    : 33.8 MiB (2%)
    Language                       : English
    
    Audio #5
    ID                             : 74 (0x4A)
    Menu ID                        : 1 (0x1)
    Format                         : MPEG Audio
    Format version                 : Version 1
    Format profile                 : Layer 2
    Codec ID                       : 3
    Duration                       : 12 min 18 s
    Bit rate mode                  : Constant
    Bit rate                       : 384 kb/s
    Channel(s)                     : 2 channels
    Sampling rate                  : 48.0 kHz
    Compression mode               : Lossy
    Delay relative to video        : 7 ms
    Stream size                    : 33.8 MiB (2%)
    Language                       : English
    
    Audio #6
    ID                             : 75 (0x4B)
    Menu ID                        : 1 (0x1)
    Format                         : MPEG Audio
    Format version                 : Version 1
    Format profile                 : Layer 2
    Codec ID                       : 3
    Duration                       : 12 min 18 s
    Bit rate mode                  : Constant
    Bit rate                       : 384 kb/s
    Channel(s)                     : 2 channels
    Sampling rate                  : 48.0 kHz
    Compression mode               : Lossy
    Delay relative to video        : 7 ms
    Stream size                    : 33.8 MiB (2%)
    Language                       : English
    
    Audio #7
    ID                             : 76 (0x4C)
    Menu ID                        : 1 (0x1)
    Format                         : MPEG Audio
    Format version                 : Version 1
    Format profile                 : Layer 2
    Codec ID                       : 3
    Duration                       : 12 min 18 s
    Bit rate mode                  : Constant
    Bit rate                       : 384 kb/s
    Channel(s)                     : 2 channels
    Sampling rate                  : 48.0 kHz
    Compression mode               : Lossy
    Delay relative to video        : 7 ms
    Stream size                    : 33.8 MiB (2%)
    Language                       : English
    
    Audio #8
    ID                             : 77 (0x4D)
    Menu ID                        : 1 (0x1)
    Format                         : MPEG Audio
    Format version                 : Version 1
    Format profile                 : Layer 2
    Codec ID                       : 3
    Duration                       : 12 min 18 s
    Bit rate mode                  : Constant
    Bit rate                       : 384 kb/s
    Channel(s)                     : 2 channels
    Sampling rate                  : 48.0 kHz
    Compression mode               : Lossy
    Delay relative to video        : 7 ms
    Stream size                    : 33.8 MiB (2%)
    Language                       : English
    Hidden Content:
    You must reply before you can see the hidden data contained here.

    [​IMG] [​IMG]

    [​IMG]
    Code:
    General
    ID                             : 1 (0x1)
    Complete name                  : D:\03 5 Seconds of Summer - iHeart Wango Tango 6-2-2018 BACKHAUL 1080i h264 MPA2.0-ALANiS.ts
    Format                         : MPEG-TS
    File size                      : 3.27 GiB
    Duration                       : 29 min 33 s
    Overall bit rate mode          : Variable
    Overall bit rate               : 15.8 Mb/s
    
    Video
    ID                             : 65 (0x41)
    Menu ID                        : 1 (0x1)
    Format                         : AVC
    Format/Info                    : Advanced Video Codec
    Format profile                 : High@L4.1
    Format settings, CABAC         : Yes
    Format settings, RefFrames     : 4 frames
    Codec ID                       : 27
    Duration                       : 29 min 27 s
    Bit rate                       : 12.1 Mb/s
    Width                          : 1 920 pixels
    Height                         : 1 080 pixels
    Display aspect ratio           : 16:9
    Frame rate                     : 29.970 (30000/1001) FPS
    Standard                       : Component
    Color space                    : YUV
    Chroma subsampling             : 4:2:0
    Bit depth                      : 8 bits
    Scan type                      : MBAFF
    Scan type, store method        : Interleaved fields
    Scan order                     : Top Field First
    Bits/(Pixel*Frame)             : 0.195
    Stream size                    : 2.50 GiB (76%)
    Color range                    : Limited
    Color primaries                : BT.709
    Transfer characteristics       : BT.709
    Matrix coefficients            : BT.709
    
    Audio #1
    ID                             : 68 (0x44)
    Menu ID                        : 1 (0x1)
    Format                         : MPEG Audio
    Format version                 : Version 1
    Format profile                 : Layer 2
    Codec ID                       : 3
    Duration                       : 29 min 33 s
    Bit rate mode                  : Constant
    Bit rate                       : 192 kb/s
    Channel(s)                     : 2 channels
    Sampling rate                  : 48.0 kHz
    Compression mode               : Lossy
    Delay relative to video        : 3 ms
    Stream size                    : 40.6 MiB (1%)
    Language                       : English
    
    Audio #2
    ID                             : 69 (0x45)
    Menu ID                        : 1 (0x1)
    Format                         : MPEG Audio
    Format version                 : Version 1
    Format profile                 : Layer 2
    Codec ID                       : 3
    Duration                       : 29 min 33 s
    Bit rate mode                  : Constant
    Bit rate                       : 384 kb/s
    Channel(s)                     : 2 channels
    Sampling rate                  : 48.0 kHz
    Compression mode               : Lossy
    Delay relative to video        : 3 ms
    Stream size                    : 81.2 MiB (2%)
    Language                       : English
    
    Audio #3
    ID                             : 70 (0x46)
    Menu ID                        : 1 (0x1)
    Format                         : MPEG Audio
    Format version                 : Version 1
    Format profile                 : Layer 2
    Codec ID                       : 3
    Duration                       : 29 min 33 s
    Bit rate mode                  : Constant
    Bit rate                       : 384 kb/s
    Channel(s)                     : 2 channels
    Sampling rate                  : 48.0 kHz
    Compression mode               : Lossy
    Delay relative to video        : 3 ms
    Stream size                    : 81.2 MiB (2%)
    Language                       : English
    
    Audio #4
    ID                             : 71 (0x47)
    Menu ID                        : 1 (0x1)
    Format                         : MPEG Audio
    Format version                 : Version 1
    Format profile                 : Layer 2
    Codec ID                       : 3
    Duration                       : 29 min 33 s
    Bit rate mode                  : Constant
    Bit rate                       : 384 kb/s
    Channel(s)                     : 2 channels
    Sampling rate                  : 48.0 kHz
    Compression mode               : Lossy
    Delay relative to video        : 3 ms
    Stream size                    : 81.2 MiB (2%)
    Language                       : English
    
    Audio #5
    ID                             : 74 (0x4A)
    Menu ID                        : 1 (0x1)
    Format                         : MPEG Audio
    Format version                 : Version 1
    Format profile                 : Layer 2
    Codec ID                       : 3
    Duration                       : 29 min 33 s
    Bit rate mode                  : Constant
    Bit rate                       : 384 kb/s
    Channel(s)                     : 2 channels
    Sampling rate                  : 48.0 kHz
    Compression mode               : Lossy
    Delay relative to video        : 3 ms
    Stream size                    : 81.2 MiB (2%)
    Language                       : English
    
    Audio #6
    ID                             : 75 (0x4B)
    Menu ID                        : 1 (0x1)
    Format                         : MPEG Audio
    Format version                 : Version 1
    Format profile                 : Layer 2
    Codec ID                       : 3
    Duration                       : 29 min 33 s
    Bit rate mode                  : Constant
    Bit rate                       : 384 kb/s
    Channel(s)                     : 2 channels
    Sampling rate                  : 48.0 kHz
    Compression mode               : Lossy
    Delay relative to video        : 3 ms
    Stream size                    : 81.2 MiB (2%)
    Language                       : English
    
    Audio #7
    ID                             : 76 (0x4C)
    Menu ID                        : 1 (0x1)
    Format                         : MPEG Audio
    Format version                 : Version 1
    Format profile                 : Layer 2
    Codec ID                       : 3
    Duration                       : 29 min 33 s
    Bit rate mode                  : Constant
    Bit rate                       : 384 kb/s
    Channel(s)                     : 2 channels
    Sampling rate                  : 48.0 kHz
    Compression mode               : Lossy
    Delay relative to video        : 3 ms
    Stream size                    : 81.2 MiB (2%)
    Language                       : English
    
    Audio #8
    ID                             : 77 (0x4D)
    Menu ID                        : 1 (0x1)
    Format                         : MPEG Audio
    Format version                 : Version 1
    Format profile                 : Layer 2
    Codec ID                       : 3
    Duration                       : 29 min 33 s
    Bit rate mode                  : Constant
    Bit rate                       : 384 kb/s
    Channel(s)                     : 2 channels
    Sampling rate                  : 48.0 kHz
    Compression mode               : Lossy
    Delay relative to video        : 3 ms
    Stream size                    : 81.2 MiB (2%)
    Language                       : English
    Hidden Content:
    You must reply before you can see the hidden data contained here.

    [​IMG] [​IMG]

    [​IMG]
    Code:
    General
    ID                             : 1 (0x1)
    Complete name                  : D:\04 NF - iHeart Wango Tango 6-2-2018 BACKHAUL 1080i h264 MPA2.0-ALANiS.ts
    Format                         : MPEG-TS
    File size                      : 1.58 GiB
    Duration                       : 14 min 17 s
    Overall bit rate mode          : Variable
    Overall bit rate               : 15.8 Mb/s
    
    Video
    ID                             : 65 (0x41)
    Menu ID                        : 1 (0x1)
    Format                         : AVC
    Format/Info                    : Advanced Video Codec
    Format profile                 : High@L4.1
    Format settings, CABAC         : Yes
    Format settings, RefFrames     : 4 frames
    Codec ID                       : 27
    Duration                       : 14 min 17 s
    Bit rate                       : 12.1 Mb/s
    Width                          : 1 920 pixels
    Height                         : 1 080 pixels
    Display aspect ratio           : 16:9
    Frame rate                     : 29.970 (30000/1001) FPS
    Standard                       : Component
    Color space                    : YUV
    Chroma subsampling             : 4:2:0
    Bit depth                      : 8 bits
    Scan type                      : MBAFF
    Scan type, store method        : Interleaved fields
    Scan order                     : Top Field First
    Bits/(Pixel*Frame)             : 0.195
    Stream size                    : 1.21 GiB (77%)
    Color range                    : Limited
    Color primaries                : BT.709
    Transfer characteristics       : BT.709
    Matrix coefficients            : BT.709
    
    Audio #1
    ID                             : 68 (0x44)
    Menu ID                        : 1 (0x1)
    Format                         : MPEG Audio
    Format version                 : Version 1
    Format profile                 : Layer 2
    Codec ID                       : 3
    Duration                       : 14 min 17 s
    Bit rate mode                  : Constant
    Bit rate                       : 192 kb/s
    Channel(s)                     : 2 channels
    Sampling rate                  : 48.0 kHz
    Compression mode               : Lossy
    Delay relative to video        : 18 ms
    Stream size                    : 19.6 MiB (1%)
    Language                       : English
    
    Audio #2
    ID                             : 69 (0x45)
    Menu ID                        : 1 (0x1)
    Format                         : MPEG Audio
    Format version                 : Version 1
    Format profile                 : Layer 2
    Codec ID                       : 3
    Duration                       : 14 min 17 s
    Bit rate mode                  : Constant
    Bit rate                       : 384 kb/s
    Channel(s)                     : 2 channels
    Sampling rate                  : 48.0 kHz
    Compression mode               : Lossy
    Delay relative to video        : 18 ms
    Stream size                    : 39.3 MiB (2%)
    Language                       : English
    
    Audio #3
    ID                             : 70 (0x46)
    Menu ID                        : 1 (0x1)
    Format                         : MPEG Audio
    Format version                 : Version 1
    Format profile                 : Layer 2
    Codec ID                       : 3
    Duration                       : 14 min 17 s
    Bit rate mode                  : Constant
    Bit rate                       : 384 kb/s
    Channel(s)                     : 2 channels
    Sampling rate                  : 48.0 kHz
    Compression mode               : Lossy
    Delay relative to video        : 18 ms
    Stream size                    : 39.3 MiB (2%)
    Language                       : English
    
    Audio #4
    ID                             : 71 (0x47)
    Menu ID                        : 1 (0x1)
    Format                         : MPEG Audio
    Format version                 : Version 1
    Format profile                 : Layer 2
    Codec ID                       : 3
    Duration                       : 14 min 17 s
    Bit rate mode                  : Constant
    Bit rate                       : 384 kb/s
    Channel(s)                     : 2 channels
    Sampling rate                  : 48.0 kHz
    Compression mode               : Lossy
    Delay relative to video        : 18 ms
    Stream size                    : 39.3 MiB (2%)
    Language                       : English
    
    Audio #5
    ID                             : 74 (0x4A)
    Menu ID                        : 1 (0x1)
    Format                         : MPEG Audio
    Format version                 : Version 1
    Format profile                 : Layer 2
    Codec ID                       : 3
    Duration                       : 14 min 17 s
    Bit rate mode                  : Constant
    Bit rate                       : 384 kb/s
    Channel(s)                     : 2 channels
    Sampling rate                  : 48.0 kHz
    Compression mode               : Lossy
    Delay relative to video        : 18 ms
    Stream size                    : 39.3 MiB (2%)
    Language                       : English
    
    Audio #6
    ID                             : 75 (0x4B)
    Menu ID                        : 1 (0x1)
    Format                         : MPEG Audio
    Format version                 : Version 1
    Format profile                 : Layer 2
    Codec ID                       : 3
    Duration                       : 14 min 17 s
    Bit rate mode                  : Constant
    Bit rate                       : 384 kb/s
    Channel(s)                     : 2 channels
    Sampling rate                  : 48.0 kHz
    Compression mode               : Lossy
    Delay relative to video        : 18 ms
    Stream size                    : 39.3 MiB (2%)
    Language                       : English
    
    Audio #7
    ID                             : 76 (0x4C)
    Menu ID                        : 1 (0x1)
    Format                         : MPEG Audio
    Format version                 : Version 1
    Format profile                 : Layer 2
    Codec ID                       : 3
    Duration                       : 14 min 17 s
    Bit rate mode                  : Constant
    Bit rate                       : 384 kb/s
    Channel(s)                     : 2 channels
    Sampling rate                  : 48.0 kHz
    Compression mode               : Lossy
    Delay relative to video        : 18 ms
    Stream size                    : 39.3 MiB (2%)
    Language                       : English
    
    Audio #8
    ID                             : 77 (0x4D)
    Menu ID                        : 1 (0x1)
    Format                         : MPEG Audio
    Format version                 : Version 1
    Format profile                 : Layer 2
    Codec ID                       : 3
    Duration                       : 14 min 17 s
    Bit rate mode                  : Constant
    Bit rate                       : 384 kb/s
    Channel(s)                     : 2 channels
    Sampling rate                  : 48.0 kHz
    Compression mode               : Lossy
    Delay relative to video        : 18 ms
    Stream size                    : 39.3 MiB (2%)
    Language                       : English
    Hidden Content:
    You must reply before you can see the hidden data contained here.

    [​IMG] [​IMG]

    [​IMG]
    Code:
    General
    ID                             : 1 (0x1)
    Complete name                  : D:\05 Shawn Mendes - iHeart Wango Tango 6-2-2018 BACKHAUL 1080i h264 MPA2.0-ALANiS.ts
    Format                         : MPEG-TS
    File size                      : 3.52 GiB
    Duration                       : 31 min 55 s
    Overall bit rate mode          : Variable
    Overall bit rate               : 15.8 Mb/s
    
    Video
    ID                             : 65 (0x41)
    Menu ID                        : 1 (0x1)
    Format                         : AVC
    Format/Info                    : Advanced Video Codec
    Format profile                 : High@L4.1
    Format settings, CABAC         : Yes
    Format settings, RefFrames     : 4 frames
    Codec ID                       : 27
    Duration                       : 31 min 50 s
    Bit rate                       : 12.1 Mb/s
    Width                          : 1 920 pixels
    Height                         : 1 080 pixels
    Display aspect ratio           : 16:9
    Frame rate                     : 29.970 (30000/1001) FPS
    Standard                       : Component
    Color space                    : YUV
    Chroma subsampling             : 4:2:0
    Bit depth                      : 8 bits
    Scan type                      : MBAFF
    Scan type, store method        : Interleaved fields
    Scan order                     : Top Field First
    Bits/(Pixel*Frame)             : 0.195
    Stream size                    : 2.69 GiB (76%)
    Color range                    : Limited
    Color primaries                : BT.709
    Transfer characteristics       : BT.709
    Matrix coefficients            : BT.709
    
    Audio #1
    ID                             : 68 (0x44)
    Menu ID                        : 1 (0x1)
    Format                         : MPEG Audio
    Format version                 : Version 1
    Format profile                 : Layer 2
    Codec ID                       : 3
    Duration                       : 31 min 55 s
    Bit rate mode                  : Constant
    Bit rate                       : 192 kb/s
    Channel(s)                     : 2 channels
    Sampling rate                  : 48.0 kHz
    Compression mode               : Lossy
    Delay relative to video        : 1 ms
    Stream size                    : 43.9 MiB (1%)
    Language                       : English
    
    Audio #2
    ID                             : 69 (0x45)
    Menu ID                        : 1 (0x1)
    Format                         : MPEG Audio
    Format version                 : Version 1
    Format profile                 : Layer 2
    Codec ID                       : 3
    Duration                       : 31 min 55 s
    Bit rate mode                  : Constant
    Bit rate                       : 384 kb/s
    Channel(s)                     : 2 channels
    Sampling rate                  : 48.0 kHz
    Compression mode               : Lossy
    Delay relative to video        : 1 ms
    Stream size                    : 87.7 MiB (2%)
    Language                       : English
    
    Audio #3
    ID                             : 70 (0x46)
    Menu ID                        : 1 (0x1)
    Format                         : MPEG Audio
    Format version                 : Version 1
    Format profile                 : Layer 2
    Codec ID                       : 3
    Duration                       : 31 min 55 s
    Bit rate mode                  : Constant
    Bit rate                       : 384 kb/s
    Channel(s)                     : 2 channels
    Sampling rate                  : 48.0 kHz
    Compression mode               : Lossy
    Delay relative to video        : 1 ms
    Stream size                    : 87.7 MiB (2%)
    Language                       : English
    
    Audio #4
    ID                             : 71 (0x47)
    Menu ID                        : 1 (0x1)
    Format                         : MPEG Audio
    Format version                 : Version 1
    Format profile                 : Layer 2
    Codec ID                       : 3
    Duration                       : 31 min 55 s
    Bit rate mode                  : Constant
    Bit rate                       : 384 kb/s
    Channel(s)                     : 2 channels
    Sampling rate                  : 48.0 kHz
    Compression mode               : Lossy
    Delay relative to video        : 1 ms
    Stream size                    : 87.7 MiB (2%)
    Language                       : English
    
    Audio #5
    ID                             : 74 (0x4A)
    Menu ID                        : 1 (0x1)
    Format                         : MPEG Audio
    Format version                 : Version 1
    Format profile                 : Layer 2
    Codec ID                       : 3
    Duration                       : 31 min 55 s
    Bit rate mode                  : Constant
    Bit rate                       : 384 kb/s
    Channel(s)                     : 2 channels
    Sampling rate                  : 48.0 kHz
    Compression mode               : Lossy
    Delay relative to video        : 1 ms
    Stream size                    : 87.7 MiB (2%)
    Language                       : English
    
    Audio #6
    ID                             : 75 (0x4B)
    Menu ID                        : 1 (0x1)
    Format                         : MPEG Audio
    Format version                 : Version 1
    Format profile                 : Layer 2
    Codec ID                       : 3
    Duration                       : 31 min 55 s
    Bit rate mode                  : Constant
    Bit rate                       : 384 kb/s
    Channel(s)                     : 2 channels
    Sampling rate                  : 48.0 kHz
    Compression mode               : Lossy
    Delay relative to video        : 1 ms
    Stream size                    : 87.7 MiB (2%)
    Language                       : English
    
    Audio #7
    ID                             : 76 (0x4C)
    Menu ID                        : 1 (0x1)
    Format                         : MPEG Audio
    Format version                 : Version 1
    Format profile                 : Layer 2
    Codec ID                       : 3
    Duration                       : 31 min 55 s
    Bit rate mode                  : Constant
    Bit rate                       : 384 kb/s
    Channel(s)                     : 2 channels
    Sampling rate                  : 48.0 kHz
    Compression mode               : Lossy
    Delay relative to video        : 1 ms
    Stream size                    : 87.7 MiB (2%)
    Language                       : English
    
    Audio #8
    ID                             : 77 (0x4D)
    Menu ID                        : 1 (0x1)
    Format                         : MPEG Audio
    Format version                 : Version 1
    Format profile                 : Layer 2
    Codec ID                       : 3
    Duration                       : 31 min 55 s
    Bit rate mode                  : Constant
    Bit rate                       : 384 kb/s
    Channel(s)                     : 2 channels
    Sampling rate                  : 48.0 kHz
    Compression mode               : Lossy
    Delay relative to video        : 1 ms
    Stream size                    : 87.7 MiB (2%)
    Language                       : English
    Hidden Content:
    You must reply before you can see the hidden data contained here.

    [​IMG] [​IMG]

    [​IMG]
    Code:
    General
    ID                             : 1 (0x1)
    Complete name                  : D:\06 Meghan Trainor - iHeart Wango Tango 6-2-2018 BACKHAUL 1080i h264 MPA2.0-ALANiS.ts
    Format                         : MPEG-TS
    File size                      : 2.48 GiB
    Duration                       : 22 min 59 s
    Overall bit rate mode          : Variable
    Overall bit rate               : 15.4 Mb/s
    
    Video
    ID                             : 65 (0x41)
    Menu ID                        : 1 (0x1)
    Format                         : AVC
    Format/Info                    : Advanced Video Codec
    Format profile                 : High@L4.1
    Format settings, CABAC         : Yes
    Format settings, RefFrames     : 4 frames
    Codec ID                       : 27
    Duration                       : 22 min 55 s
    Bit rate                       : 11.7 Mb/s
    Width                          : 1 920 pixels
    Height                         : 1 080 pixels
    Display aspect ratio           : 16:9
    Frame rate                     : 29.970 (30000/1001) FPS
    Standard                       : Component
    Color space                    : YUV
    Chroma subsampling             : 4:2:0
    Bit depth                      : 8 bits
    Scan type                      : MBAFF
    Scan type, store method        : Interleaved fields
    Scan order                     : Top Field First
    Bits/(Pixel*Frame)             : 0.189
    Stream size                    : 1.88 GiB (76%)
    Color range                    : Limited
    Color primaries                : BT.709
    Transfer characteristics       : BT.709
    Matrix coefficients            : BT.709
    
    Audio #1
    ID                             : 68 (0x44)
    Menu ID                        : 1 (0x1)
    Format                         : MPEG Audio
    Format version                 : Version 1
    Format profile                 : Layer 2
    Codec ID                       : 3
    Duration                       : 22 min 59 s
    Bit rate mode                  : Constant
    Bit rate                       : 192 kb/s
    Channel(s)                     : 2 channels
    Sampling rate                  : 48.0 kHz
    Compression mode               : Lossy
    Delay relative to video        : 16 ms
    Stream size                    : 31.6 MiB (1%)
    Language                       : English
    
    Audio #2
    ID                             : 69 (0x45)
    Menu ID                        : 1 (0x1)
    Format                         : MPEG Audio
    Format version                 : Version 1
    Format profile                 : Layer 2
    Codec ID                       : 3
    Duration                       : 22 min 59 s
    Bit rate mode                  : Constant
    Bit rate                       : 384 kb/s
    Channel(s)                     : 2 channels
    Sampling rate                  : 48.0 kHz
    Compression mode               : Lossy
    Delay relative to video        : 16 ms
    Stream size                    : 63.2 MiB (2%)
    Language                       : English
    
    Audio #3
    ID                             : 70 (0x46)
    Menu ID                        : 1 (0x1)
    Format                         : MPEG Audio
    Format version                 : Version 1
    Format profile                 : Layer 2
    Codec ID                       : 3
    Duration                       : 22 min 59 s
    Bit rate mode                  : Constant
    Bit rate                       : 384 kb/s
    Channel(s)                     : 2 channels
    Sampling rate                  : 48.0 kHz
    Compression mode               : Lossy
    Delay relative to video        : 16 ms
    Stream size                    : 63.2 MiB (2%)
    Language                       : English
    
    Audio #4
    ID                             : 71 (0x47)
    Menu ID                        : 1 (0x1)
    Format                         : MPEG Audio
    Format version                 : Version 1
    Format profile                 : Layer 2
    Codec ID                       : 3
    Duration                       : 22 min 59 s
    Bit rate mode                  : Constant
    Bit rate                       : 384 kb/s
    Channel(s)                     : 2 channels
    Sampling rate                  : 48.0 kHz
    Compression mode               : Lossy
    Delay relative to video        : 16 ms
    Stream size                    : 63.2 MiB (2%)
    Language                       : English
    
    Audio #5
    ID                             : 74 (0x4A)
    Menu ID                        : 1 (0x1)
    Format                         : MPEG Audio
    Format version                 : Version 1
    Format profile                 : Layer 2
    Codec ID                       : 3
    Duration                       : 22 min 59 s
    Bit rate mode                  : Constant
    Bit rate                       : 384 kb/s
    Channel(s)                     : 2 channels
    Sampling rate                  : 48.0 kHz
    Compression mode               : Lossy
    Delay relative to video        : 16 ms
    Stream size                    : 63.2 MiB (2%)
    Language                       : English
    
    Audio #6
    ID                             : 75 (0x4B)
    Menu ID                        : 1 (0x1)
    Format                         : MPEG Audio
    Format version                 : Version 1
    Format profile                 : Layer 2
    Codec ID                       : 3
    Duration                       : 22 min 59 s
    Bit rate mode                  : Constant
    Bit rate                       : 384 kb/s
    Channel(s)                     : 2 channels
    Sampling rate                  : 48.0 kHz
    Compression mode               : Lossy
    Delay relative to video        : 16 ms
    Stream size                    : 63.2 MiB (2%)
    Language                       : English
    
    Audio #7
    ID                             : 76 (0x4C)
    Menu ID                        : 1 (0x1)
    Format                         : MPEG Audio
    Format version                 : Version 1
    Format profile                 : Layer 2
    Codec ID                       : 3
    Duration                       : 22 min 59 s
    Bit rate mode                  : Constant
    Bit rate                       : 384 kb/s
    Channel(s)                     : 2 channels
    Sampling rate                  : 48.0 kHz
    Compression mode               : Lossy
    Delay relative to video        : 16 ms
    Stream size                    : 63.2 MiB (2%)
    Language                       : English
    
    Audio #8
    ID                             : 77 (0x4D)
    Menu ID                        : 1 (0x1)
    Format                         : MPEG Audio
    Format version                 : Version 1
    Format profile                 : Layer 2
    Codec ID                       : 3
    Duration                       : 22 min 59 s
    Bit rate mode                  : Constant
    Bit rate                       : 384 kb/s
    Channel(s)                     : 2 channels
    Sampling rate                  : 48.0 kHz
    Compression mode               : Lossy
    Delay relative to video        : 16 ms
    Stream size                    : 63.2 MiB (2%)
    Language                       : English
    Hidden Content:
    You must reply before you can see the hidden data contained here.

    [​IMG] [​IMG]

    [​IMG]
    Code:
    General
    ID                             : 1 (0x1)
    Complete name                  : D:\07 Miguel - iHeart Wango Tango 6-2-2018 BACKHAUL 1080i h264 MPA2.0-ALANiS.ts
    Format                         : MPEG-TS
    File size                      : 2.32 GiB
    Duration                       : 21 min 35 s
    Overall bit rate mode          : Variable
    Overall bit rate               : 15.4 Mb/s
    
    Video
    ID                             : 65 (0x41)
    Menu ID                        : 1 (0x1)
    Format                         : AVC
    Format/Info                    : Advanced Video Codec
    Format profile                 : High@L4.1
    Format settings, CABAC         : Yes
    Format settings, RefFrames     : 4 frames
    Codec ID                       : 27
    Duration                       : 21 min 35 s
    Bit rate                       : 11.7 Mb/s
    Width                          : 1 920 pixels
    Height                         : 1 080 pixels
    Display aspect ratio           : 16:9
    Frame rate                     : 29.970 (30000/1001) FPS
    Standard                       : Component
    Color space                    : YUV
    Chroma subsampling             : 4:2:0
    Bit depth                      : 8 bits
    Scan type                      : MBAFF
    Scan type, store method        : Interleaved fields
    Scan order                     : Top Field First
    Bits/(Pixel*Frame)             : 0.188
    Stream size                    : 1.77 GiB (76%)
    Color range                    : Limited
    Color primaries                : BT.709
    Transfer characteristics       : BT.709
    Matrix coefficients            : BT.709
    
    Audio #1
    ID                             : 68 (0x44)
    Menu ID                        : 1 (0x1)
    Format                         : MPEG Audio
    Format version                 : Version 1
    Format profile                 : Layer 2
    Codec ID                       : 3
    Duration                       : 21 min 35 s
    Bit rate mode                  : Constant
    Bit rate                       : 192 kb/s
    Channel(s)                     : 2 channels
    Sampling rate                  : 48.0 kHz
    Compression mode               : Lossy
    Delay relative to video        : 20 ms
    Stream size                    : 29.7 MiB (1%)
    Language                       : English
    
    Audio #2
    ID                             : 69 (0x45)
    Menu ID                        : 1 (0x1)
    Format                         : MPEG Audio
    Format version                 : Version 1
    Format profile                 : Layer 2
    Codec ID                       : 3
    Duration                       : 21 min 35 s
    Bit rate mode                  : Constant
    Bit rate                       : 384 kb/s
    Channel(s)                     : 2 channels
    Sampling rate                  : 48.0 kHz
    Compression mode               : Lossy
    Delay relative to video        : 20 ms
    Stream size                    : 59.3 MiB (2%)
    Language                       : English
    
    Audio #3
    ID                             : 70 (0x46)
    Menu ID                        : 1 (0x1)
    Format                         : MPEG Audio
    Format version                 : Version 1
    Format profile                 : Layer 2
    Codec ID                       : 3
    Duration                       : 21 min 35 s
    Bit rate mode                  : Constant
    Bit rate                       : 384 kb/s
    Channel(s)                     : 2 channels
    Sampling rate                  : 48.0 kHz
    Compression mode               : Lossy
    Delay relative to video        : 20 ms
    Stream size                    : 59.3 MiB (2%)
    Language                       : English
    
    Audio #4
    ID                             : 71 (0x47)
    Menu ID                        : 1 (0x1)
    Format                         : MPEG Audio
    Format version                 : Version 1
    Format profile                 : Layer 2
    Codec ID                       : 3
    Duration                       : 21 min 35 s
    Bit rate mode                  : Constant
    Bit rate                       : 384 kb/s
    Channel(s)                     : 2 channels
    Sampling rate                  : 48.0 kHz
    Compression mode               : Lossy
    Delay relative to video        : 20 ms
    Stream size                    : 59.3 MiB (2%)
    Language                       : English
    
    Audio #5
    ID                             : 74 (0x4A)
    Menu ID                        : 1 (0x1)
    Format                         : MPEG Audio
    Format version                 : Version 1
    Format profile                 : Layer 2
    Codec ID                       : 3
    Duration                       : 21 min 35 s
    Bit rate mode                  : Constant
    Bit rate                       : 384 kb/s
    Channel(s)                     : 2 channels
    Sampling rate                  : 48.0 kHz
    Compression mode               : Lossy
    Delay relative to video        : 20 ms
    Stream size                    : 59.3 MiB (2%)
    Language                       : English
    
    Audio #6
    ID                             : 75 (0x4B)
    Menu ID                        : 1 (0x1)
    Format                         : MPEG Audio
    Format version                 : Version 1
    Format profile                 : Layer 2
    Codec ID                       : 3
    Duration                       : 21 min 35 s
    Bit rate mode                  : Constant
    Bit rate                       : 384 kb/s
    Channel(s)                     : 2 channels
    Sampling rate                  : 48.0 kHz
    Compression mode               : Lossy
    Delay relative to video        : 20 ms
    Stream size                    : 59.3 MiB (2%)
    Language                       : English
    
    Audio #7
    ID                             : 76 (0x4C)
    Menu ID                        : 1 (0x1)
    Format                         : MPEG Audio
    Format version                 : Version 1
    Format profile                 : Layer 2
    Codec ID                       : 3
    Duration                       : 21 min 35 s
    Bit rate mode                  : Constant
    Bit rate                       : 384 kb/s
    Channel(s)                     : 2 channels
    Sampling rate                  : 48.0 kHz
    Compression mode               : Lossy
    Delay relative to video        : 20 ms
    Stream size                    : 59.3 MiB (2%)
    Language                       : English
    
    Audio #8
    ID                             : 77 (0x4D)
    Menu ID                        : 1 (0x1)
    Format                         : MPEG Audio
    Format version                 : Version 1
    Format profile                 : Layer 2
    Codec ID                       : 3
    Duration                       : 21 min 35 s
    Bit rate mode                  : Constant
    Bit rate                       : 384 kb/s
    Channel(s)                     : 2 channels
    Sampling rate                  : 48.0 kHz
    Compression mode               : Lossy
    Delay relative to video        : 20 ms
    Stream size                    : 59.3 MiB (2%)
    Language                       : English
    Hidden Content:
    You must reply before you can see the hidden data contained here.

    [​IMG] [​IMG]

    [​IMG]
    Code:
    General
    ID                             : 1 (0x1)
    Complete name                  : D:\08 Backstreet Boys - iHeart Wango Tango 6-2-2018 BACKHAUL 1080i h264 MPA2.0-ALANiS.ts
    Format                         : MPEG-TS
    File size                      : 3.52 GiB
    Duration                       : 32 min 44 s
    Overall bit rate mode          : Variable
    Overall bit rate               : 15.4 Mb/s
    
    Video
    ID                             : 65 (0x41)
    Menu ID                        : 1 (0x1)
    Format                         : AVC
    Format/Info                    : Advanced Video Codec
    Format profile                 : High@L4.1
    Format settings, CABAC         : Yes
    Format settings, RefFrames     : 4 frames
    Codec ID                       : 27
    Duration                       : 32 min 44 s
    Bit rate                       : 11.7 Mb/s
    Width                          : 1 920 pixels
    Height                         : 1 080 pixels
    Display aspect ratio           : 16:9
    Frame rate                     : 29.970 (30000/1001) FPS
    Standard                       : Component
    Color space                    : YUV
    Chroma subsampling             : 4:2:0
    Bit depth                      : 8 bits
    Scan type                      : MBAFF
    Scan type, store method        : Interleaved fields
    Scan order                     : Top Field First
    Bits/(Pixel*Frame)             : 0.189
    Stream size                    : 2.68 GiB (76%)
    Color range                    : Limited
    Color primaries                : BT.709
    Transfer characteristics       : BT.709
    Matrix coefficients            : BT.709
    
    Audio #1
    ID                             : 68 (0x44)
    Menu ID                        : 1 (0x1)
    Format                         : MPEG Audio
    Format version                 : Version 1
    Format profile                 : Layer 2
    Codec ID                       : 3
    Duration                       : 32 min 44 s
    Bit rate mode                  : Constant
    Bit rate                       : 192 kb/s
    Channel(s)                     : 2 channels
    Sampling rate                  : 48.0 kHz
    Compression mode               : Lossy
    Delay relative to video        : 14 ms
    Stream size                    : 45.0 MiB (1%)
    Language                       : English
    
    Audio #2
    ID                             : 69 (0x45)
    Menu ID                        : 1 (0x1)
    Format                         : MPEG Audio
    Format version                 : Version 1
    Format profile                 : Layer 2
    Codec ID                       : 3
    Duration                       : 32 min 44 s
    Bit rate mode                  : Constant
    Bit rate                       : 384 kb/s
    Channel(s)                     : 2 channels
    Sampling rate                  : 48.0 kHz
    Compression mode               : Lossy
    Delay relative to video        : 14 ms
    Stream size                    : 89.9 MiB (2%)
    Language                       : English
    
    Audio #3
    ID                             : 70 (0x46)
    Menu ID                        : 1 (0x1)
    Format                         : MPEG Audio
    Format version                 : Version 1
    Format profile                 : Layer 2
    Codec ID                       : 3
    Duration                       : 32 min 44 s
    Bit rate mode                  : Constant
    Bit rate                       : 384 kb/s
    Channel(s)                     : 2 channels
    Sampling rate                  : 48.0 kHz
    Compression mode               : Lossy
    Delay relative to video        : 14 ms
    Stream size                    : 89.9 MiB (2%)
    Language                       : English
    
    Audio #4
    ID                             : 71 (0x47)
    Menu ID                        : 1 (0x1)
    Format                         : MPEG Audio
    Format version                 : Version 1
    Format profile                 : Layer 2
    Codec ID                       : 3
    Duration                       : 32 min 44 s
    Bit rate mode                  : Constant
    Bit rate                       : 384 kb/s
    Channel(s)                     : 2 channels
    Sampling rate                  : 48.0 kHz
    Compression mode               : Lossy
    Delay relative to video        : 14 ms
    Stream size                    : 89.9 MiB (2%)
    Language                       : English
    
    Audio #5
    ID                             : 74 (0x4A)
    Menu ID                        : 1 (0x1)
    Format                         : MPEG Audio
    Format version                 : Version 1
    Format profile                 : Layer 2
    Codec ID                       : 3
    Duration                       : 32 min 44 s
    Bit rate mode                  : Constant
    Bit rate                       : 384 kb/s
    Channel(s)                     : 2 channels
    Sampling rate                  : 48.0 kHz
    Compression mode               : Lossy
    Delay relative to video        : 14 ms
    Stream size                    : 89.9 MiB (2%)
    Language                       : English
    
    Audio #6
    ID                             : 75 (0x4B)
    Menu ID                        : 1 (0x1)
    Format                         : MPEG Audio
    Format version                 : Version 1
    Format profile                 : Layer 2
    Codec ID                       : 3
    Duration                       : 32 min 44 s
    Bit rate mode                  : Constant
    Bit rate                       : 384 kb/s
    Channel(s)                     : 2 channels
    Sampling rate                  : 48.0 kHz
    Compression mode               : Lossy
    Delay relative to video        : 14 ms
    Stream size                    : 89.9 MiB (2%)
    Language                       : English
    
    Audio #7
    ID                             : 76 (0x4C)
    Menu ID                        : 1 (0x1)
    Format                         : MPEG Audio
    Format version                 : Version 1
    Format profile                 : Layer 2
    Codec ID                       : 3
    Duration                       : 32 min 44 s
    Bit rate mode                  : Constant
    Bit rate                       : 384 kb/s
    Channel(s)                     : 2 channels
    Sampling rate                  : 48.0 kHz
    Compression mode               : Lossy
    Delay relative to video        : 14 ms
    Stream size                    : 89.9 MiB (2%)
    Language                       : English
    
    Audio #8
    ID                             : 77 (0x4D)
    Menu ID                        : 1 (0x1)
    Format                         : MPEG Audio
    Format version                 : Version 1
    Format profile                 : Layer 2
    Codec ID                       : 3
    Duration                       : 32 min 44 s
    Bit rate mode                  : Constant
    Bit rate                       : 384 kb/s
    Channel(s)                     : 2 channels
    Sampling rate                  : 48.0 kHz
    Compression mode               : Lossy
    Delay relative to video        : 14 ms
    Stream size                    : 89.9 MiB (2%)
    Language                       : English
    Hidden Content:
    You must reply before you can see the hidden data contained here.

    [​IMG] [​IMG]

    [​IMG]
    Code:
    General
    ID                             : 1 (0x1)
    Complete name                  : D:\09 Ariana Grande - iHeart Wango Tango 6-2-2018 BACKHAUL 1080i h264 MPA2.0-ALANiS.ts
    Format                         : MPEG-TS
    File size                      : 3.89 GiB
    Duration                       : 36 min 45 s
    Overall bit rate mode          : Variable
    Overall bit rate               : 15.1 Mb/s
    
    Video
    ID                             : 65 (0x41)
    Menu ID                        : 1 (0x1)
    Format                         : AVC
    Format/Info                    : Advanced Video Codec
    Format profile                 : High@L4.1
    Format settings, CABAC         : Yes
    Format settings, RefFrames     : 4 frames
    Codec ID                       : 27
    Duration                       : 36 min 42 s
    Bit rate                       : 11.5 Mb/s
    Width                          : 1 920 pixels
    Height                         : 1 080 pixels
    Display aspect ratio           : 16:9
    Frame rate                     : 29.970 (30000/1001) FPS
    Standard                       : Component
    Color space                    : YUV
    Chroma subsampling             : 4:2:0
    Bit depth                      : 8 bits
    Scan type                      : MBAFF
    Scan type, store method        : Interleaved fields
    Scan order                     : Top Field First
    Bits/(Pixel*Frame)             : 0.185
    Stream size                    : 2.94 GiB (76%)
    Color range                    : Limited
    Color primaries                : BT.709
    Transfer characteristics       : BT.709
    Matrix coefficients            : BT.709
    
    Audio #1
    ID                             : 68 (0x44)
    Menu ID                        : 1 (0x1)
    Format                         : MPEG Audio
    Format version                 : Version 1
    Format profile                 : Layer 2
    Codec ID                       : 3
    Duration                       : 36 min 45 s
    Bit rate mode                  : Constant
    Bit rate                       : 192 kb/s
    Channel(s)                     : 2 channels
    Sampling rate                  : 48.0 kHz
    Compression mode               : Lossy
    Delay relative to video        : 17 ms
    Stream size                    : 50.5 MiB (1%)
    Language                       : English
    
    Audio #2
    ID                             : 69 (0x45)
    Menu ID                        : 1 (0x1)
    Format                         : MPEG Audio
    Format version                 : Version 1
    Format profile                 : Layer 2
    Codec ID                       : 3
    Duration                       : 36 min 45 s
    Bit rate mode                  : Constant
    Bit rate                       : 384 kb/s
    Channel(s)                     : 2 channels
    Sampling rate                  : 48.0 kHz
    Compression mode               : Lossy
    Delay relative to video        : 17 ms
    Stream size                    : 101 MiB (3%)
    Language                       : English
    
    Audio #3
    ID                             : 70 (0x46)
    Menu ID                        : 1 (0x1)
    Format                         : MPEG Audio
    Format version                 : Version 1
    Format profile                 : Layer 2
    Codec ID                       : 3
    Duration                       : 36 min 45 s
    Bit rate mode                  : Constant
    Bit rate                       : 384 kb/s
    Channel(s)                     : 2 channels
    Sampling rate                  : 48.0 kHz
    Compression mode               : Lossy
    Delay relative to video        : 17 ms
    Stream size                    : 101 MiB (3%)
    Language                       : English
    
    Audio #4
    ID                             : 71 (0x47)
    Menu ID                        : 1 (0x1)
    Format                         : MPEG Audio
    Format version                 : Version 1
    Format profile                 : Layer 2
    Codec ID                       : 3
    Duration                       : 36 min 45 s
    Bit rate mode                  : Constant
    Bit rate                       : 384 kb/s
    Channel(s)                     : 2 channels
    Sampling rate                  : 48.0 kHz
    Compression mode               : Lossy
    Delay relative to video        : 17 ms
    Stream size                    : 101 MiB (3%)
    Language                       : English
    
    Audio #5
    ID                             : 74 (0x4A)
    Menu ID                        : 1 (0x1)
    Format                         : MPEG Audio
    Format version                 : Version 1
    Format profile                 : Layer 2
    Codec ID                       : 3
    Duration                       : 36 min 45 s
    Bit rate mode                  : Constant
    Bit rate                       : 384 kb/s
    Channel(s)                     : 2 channels
    Sampling rate                  : 48.0 kHz
    Compression mode               : Lossy
    Delay relative to video        : 17 ms
    Stream size                    : 101 MiB (3%)
    Language                       : English
    
    Audio #6
    ID                             : 75 (0x4B)
    Menu ID                        : 1 (0x1)
    Format                         : MPEG Audio
    Format version                 : Version 1
    Format profile                 : Layer 2
    Codec ID                       : 3
    Duration                       : 36 min 45 s
    Bit rate mode                  : Constant
    Bit rate                       : 384 kb/s
    Channel(s)                     : 2 channels
    Sampling rate                  : 48.0 kHz
    Compression mode               : Lossy
    Delay relative to video        : 17 ms
    Stream size                    : 101 MiB (3%)
    Language                       : English
    
    Audio #7
    ID                             : 76 (0x4C)
    Menu ID                        : 1 (0x1)
    Format                         : MPEG Audio
    Format version                 : Version 1
    Format profile                 : Layer 2
    Codec ID                       : 3
    Duration                       : 36 min 45 s
    Bit rate mode                  : Constant
    Bit rate                       : 384 kb/s
    Channel(s)                     : 2 channels
    Sampling rate                  : 48.0 kHz
    Compression mode               : Lossy
    Delay relative to video        : 17 ms
    Stream size                    : 101 MiB (3%)
    Language                       : English
    
    Audio #8
    ID                             : 77 (0x4D)
    Menu ID                        : 1 (0x1)
    Format                         : MPEG Audio
    Format version                 : Version 1
    Format profile                 : Layer 2
    Codec ID                       : 3
    Duration                       : 36 min 45 s
    Bit rate mode                  : Constant
    Bit rate                       : 384 kb/s
    Channel(s)                     : 2 channels
    Sampling rate                  : 48.0 kHz
    Compression mode               : Lossy
    Delay relative to video        : 17 ms
    Stream size                    : 101 MiB (3%)
    Language                       : English
    Hidden Content:
    You must reply before you can see the hidden data contained here.

    [​IMG] [​IMG]

    [​IMG]
    Code:
    General
    ID                             : 1 (0x1)
    Complete name                  : D:\10 Marshmello - iHeart Wango Tango 6-2-2018 BACKHAUL 1080i h264 MPA2.0-ALANiS.ts
    Format                         : MPEG-TS
    File size                      : 2.27 GiB
    Duration                       : 21 min 17 s
    Overall bit rate mode          : Variable
    Overall bit rate               : 15.3 Mb/s
    
    Video
    ID                             : 65 (0x41)
    Menu ID                        : 1 (0x1)
    Format                         : AVC
    Format/Info                    : Advanced Video Codec
    Format profile                 : High@L4.1
    Format settings, CABAC         : Yes
    Format settings, RefFrames     : 4 frames
    Codec ID                       : 27
    Duration                       : 1 s 168 ms
    Bit rate                       : 11.6 Mb/s
    Width                          : 1 920 pixels
    Height                         : 1 080 pixels
    Display aspect ratio           : 16:9
    Frame rate                     : 29.970 (30000/1001) FPS
    Standard                       : Component
    Color space                    : YUV
    Chroma subsampling             : 4:2:0
    Bit depth                      : 8 bits
    Scan type                      : MBAFF
    Scan type, store method        : Interleaved fields
    Scan order                     : Top Field First
    Bits/(Pixel*Frame)             : 0.187
    Stream size                    : 1.62 MiB (0%)
    Color range                    : Limited
    Color primaries                : BT.709
    Transfer characteristics       : BT.709
    Matrix coefficients            : BT.709
    
    Audio #1
    ID                             : 68 (0x44)
    Menu ID                        : 1 (0x1)
    Format                         : MPEG Audio
    Format version                 : Version 1
    Format profile                 : Layer 2
    Codec ID                       : 3
    Duration                       : 21 min 17 s
    Bit rate mode                  : Constant
    Bit rate                       : 192 kb/s
    Channel(s)                     : 2 channels
    Sampling rate                  : 48.0 kHz
    Compression mode               : Lossy
    Delay relative to video        : 1 ms
    Stream size                    : 29.2 MiB (1%)
    Language                       : English
    
    Audio #2
    ID                             : 69 (0x45)
    Menu ID                        : 1 (0x1)
    Format                         : MPEG Audio
    Format version                 : Version 1
    Format profile                 : Layer 2
    Codec ID                       : 3
    Duration                       : 21 min 17 s
    Bit rate mode                  : Constant
    Bit rate                       : 384 kb/s
    Channel(s)                     : 2 channels
    Sampling rate                  : 48.0 kHz
    Compression mode               : Lossy
    Delay relative to video        : 1 ms
    Stream size                    : 58.5 MiB (3%)
    Language                       : English
    
    Audio #3
    ID                             : 70 (0x46)
    Menu ID                        : 1 (0x1)
    Format                         : MPEG Audio
    Format version                 : Version 1
    Format profile                 : Layer 2
    Codec ID                       : 3
    Duration                       : 21 min 17 s
    Bit rate mode                  : Constant
    Bit rate                       : 384 kb/s
    Channel(s)                     : 2 channels
    Sampling rate                  : 48.0 kHz
    Compression mode               : Lossy
    Delay relative to video        : 1 ms
    Stream size                    : 58.5 MiB (3%)
    Language                       : English
    
    Audio #4
    ID                             : 71 (0x47)
    Menu ID                        : 1 (0x1)
    Format                         : MPEG Audio
    Format version                 : Version 1
    Format profile                 : Layer 2
    Codec ID                       : 3
    Duration                       : 21 min 17 s
    Bit rate mode                  : Constant
    Bit rate                       : 384 kb/s
    Channel(s)                     : 2 channels
    Sampling rate                  : 48.0 kHz
    Compression mode               : Lossy
    Delay relative to video        : 1 ms
    Stream size                    : 58.5 MiB (3%)
    Language                       : English
    
    Audio #5
    ID                             : 74 (0x4A)
    Menu ID                        : 1 (0x1)
    Format                         : MPEG Audio
    Format version                 : Version 1
    Format profile                 : Layer 2
    Codec ID                       : 3
    Duration                       : 21 min 17 s
    Bit rate mode                  : Constant
    Bit rate                       : 384 kb/s
    Channel(s)                     : 2 channels
    Sampling rate                  : 48.0 kHz
    Compression mode               : Lossy
    Delay relative to video        : 1 ms
    Stream size                    : 58.5 MiB (3%)
    Language                       : English
    
    Audio #6
    ID                             : 75 (0x4B)
    Menu ID                        : 1 (0x1)
    Format                         : MPEG Audio
    Format version                 : Version 1
    Format profile                 : Layer 2
    Codec ID                       : 3
    Duration                       : 21 min 17 s
    Bit rate mode                  : Constant
    Bit rate                       : 384 kb/s
    Channel(s)                     : 2 channels
    Sampling rate                  : 48.0 kHz
    Compression mode               : Lossy
    Delay relative to video        : 1 ms
    Stream size                    : 58.5 MiB (3%)
    Language                       : English
    
    Audio #7
    ID                             : 76 (0x4C)
    Menu ID                        : 1 (0x1)
    Format                         : MPEG Audio
    Format version                 : Version 1
    Format profile                 : Layer 2
    Codec ID                       : 3
    Duration                       : 21 min 17 s
    Bit rate mode                  : Constant
    Bit rate                       : 384 kb/s
    Channel(s)                     : 2 channels
    Sampling rate                  : 48.0 kHz
    Compression mode               : Lossy
    Delay relative to video        : 1 ms
    Stream size                    : 58.5 MiB (3%)
    Language                       : English
    
    Audio #8
    ID                             : 77 (0x4D)
    Menu ID                        : 1 (0x1)
    Format                         : MPEG Audio
    Format version                 : Version 1
    Format profile                 : Layer 2
    Codec ID                       : 3
    Duration                       : 21 min 17 s
    Bit rate mode                  : Constant
    Bit rate                       : 384 kb/s
    Channel(s)                     : 2 channels
    Sampling rate                  : 48.0 kHz
    Compression mode               : Lossy
    Delay relative to video        : 1 ms
    Stream size                    : 58.5 MiB (3%)
    Language                       : English
    Hidden Content:
    You must reply before you can see the hidden data contained here.

    Credits to the original capper @ALANiS <3 cutted by me :)
     
    edgar, RFL, Hossein Enr7que and 18 others like this.
  2. Loading...


  3. naixa

    naixa Active Member

    Joined:
    Dec 19, 2017
    Messages:
    105
    Likes Received:
    82
    Thank you for the amazing quality :):love:
     
  4. 鄭景文

    鄭景文 Member

    Joined:
    Dec 10, 2017
    Messages:
    291
    Likes Received:
    7
    Thanks a lot:cry::cry::cry:
     
  5. tf135

    tf135 Well-Known Member

    Joined:
    Nov 14, 2014
    Messages:
    3,161
    Likes Received:
    184
    thanks
     
  6. dgnio

    dgnio Well-Known Member Capper Uploader

    Joined:
    Jul 7, 2014
    Messages:
    1,983
    Likes Received:
    635
    Thanks ALANiS for this
     
    KaiKawaii likes this.
  7. rcj

    rcj Active Member

    Joined:
    May 11, 2016
    Messages:
    716
    Likes Received:
    31
    Thank U!
     
    pinky2 likes this.
  8. Thassyo

    Thassyo Well-Known Member

    Joined:
    Oct 9, 2013
    Messages:
    2,835
    Likes Received:
    1,280
    Thanks!
     
  9. hanshermann

    hanshermann Well-Known Member Uploader

    Joined:
    Aug 24, 2016
    Messages:
    6,596
    Likes Received:
    10,430
    wahts taht
     
  10. xiao_yu_1019

    xiao_yu_1019 Active Member

    Joined:
    Jan 1, 2015
    Messages:
    565
    Likes Received:
    40
    thx a lot
     
  11. Bruno

    Bruno Well-Known Member

    Joined:
    Nov 3, 2013
    Messages:
    1,747
    Likes Received:
    128
    many thx
     
  12. Nytro

    Nytro Member

    Joined:
    Nov 25, 2015
    Messages:
    237
    Likes Received:
    24
    thanks
     
  13. Maura

    Maura Well-Known Member

    Joined:
    Apr 7, 2014
    Messages:
    3,086
    Likes Received:
    97
    Thanks
     
  14. buffnfaith

    buffnfaith Member

    Joined:
    Jun 24, 2014
    Messages:
    144
    Likes Received:
    13
  15. Valdo

    Valdo Member

    Joined:
    May 18, 2015
    Messages:
    276
    Likes Received:
    14
    Thank you
     
  16. Daniele

    Daniele Active Member

    Joined:
    Nov 16, 2013
    Messages:
    194
    Likes Received:
    42
    thanks
     
  17. MarkHorax

    MarkHorax Well-Known Member

    Joined:
    Dec 10, 2016
    Messages:
    500
    Likes Received:
    569
    Thank you!
     
  18. Danny82

    Danny82 Well-Known Member

    Joined:
    May 28, 2016
    Messages:
    2,376
    Likes Received:
    664
    AMAZING!!!

    Thank you so much!!!
     
  19. brian manson

    brian manson Member

    Joined:
    Nov 22, 2017
    Messages:
    307
    Likes Received:
    13
    thanks
     
  20. amirdvb

    amirdvb Member

    Joined:
    Feb 1, 2015
    Messages:
    570
    Likes Received:
    19
    thankssssssssssssss
     
  21. Romana

    Romana Active Member

    Joined:
    Oct 26, 2013
    Messages:
    548
    Likes Received:
    90
    thank u thank u thank u!!!!!