Usher and Alicia Keys - My Boo (live MTV EMA 2004)

Discussion in 'SD Live Performances' started by jeaneyne, Nov 5, 2016.

  1. revilo18

    revilo18 Well-Known Member

    Joined:
    May 26, 2016
    Messages:
    2,048
    Likes Received:
    99
    SDFDSDDFDS
     
  2. nico1234

    nico1234 Member

    Joined:
    Jun 16, 2017
    Messages:
    48
    Likes Received:
    0
    thanks
     
  3. revilo18

    revilo18 Well-Known Member

    Joined:
    May 26, 2016
    Messages:
    2,048
    Likes Received:
    99
  4. hugonicolas

    hugonicolas Active Member

    Joined:
    Aug 25, 2017
    Messages:
    751
    Likes Received:
    33
  5. wilmer ardila

    wilmer ardila Well-Known Member

    Joined:
    Nov 14, 2014
    Messages:
    1,086
    Likes Received:
    58
  6. Dj samzo

    Dj samzo Active Member

    Joined:
    Sep 27, 2017
    Messages:
    545
    Likes Received:
    28
    thank you
     
  7. Timsi

    Timsi Active Member

    Joined:
    Jun 17, 2016
    Messages:
    515
    Likes Received:
    32
    Thanks
     
  8. Clepsodra

    Clepsodra Active Member

    Joined:
    Jan 15, 2017
    Messages:
    437
    Likes Received:
    59
    [​IMG]
    Usher and Alicia Keys - My Boo (live MTV EMA 04).m2v
    Format : MPEG-PS
    File size : 105 MiB
    Duration : 4mn 12s
    Overall bit rate : 3 503 Kbps
    Writing library : encoded by TMPGEnc (ver. 2.59.47.155)
    Video #224
    ID : 224 (0xE0)
    Format : MPEG Video
    Format version : Version 2
    Format profile : Main@Main
    Format settings, BVOP : Yes
    Format settings, Matrix : Custom
    Format settings, GOP : M=3, N=18
    Duration : 4mn 12s
    Bit rate mode : Variable
    Bit rate : 3 209 Kbps
    Nominal bit rate : 4 000 Kbps
    Width : 480 pixels
    Height : 576 pixels
    Display aspect ratio : 4:3
    Frame rate : 25.000 fps
    Standard : PAL
    Color space : YUV
    Chroma subsampling : 4:2:0
    Bit depth : 8 bits
    Scan type : Interlaced
    Scan order : Bottom Field First
    Compression mode : Lossy
    Bits/(Pixel*Frame) : 0.464
    Stream size : 96.6 MiB (92%)
    Writing library : TMPGEnc 2.59.47.155
    Audio #192
    ID : 192 (0xC0)
    Format : MPEG Audio
    Format version : Version 1
    Format profile : Layer 2
    Duration : 4mn 12s
    Bit rate mode : Constant
    Bit rate : 224 Kbps
    Channel(s) : 2 channels
    Sampling rate : 44.1 KHz
    Compression mode : Lossy
    Stream size : 6.74 MiB (6%)

    Hidden Content:
    You must reply before you can see the hidden data contained here.