Usher and Alicia Keys - My Boo (live MTV EMA 2004)

Discussion in 'SD Live Performances' started by jeaneyne, Nov 5, 2016.

  1. jeaneyne

    jeaneyne Well-Known Member

    Joined:
    Oct 21, 2013
    Messages:
    1,167
    Likes Received:
    545
    [​IMG]
    Usher and Alicia Keys - My Boo (live MTV EMA 04).m2v
    Format : MPEG-PS
    File size : 105 MiB
    Duration : 4mn 12s
    Overall bit rate : 3 503 Kbps
    Writing library : encoded by TMPGEnc (ver. 2.59.47.155)
    Video #224
    ID : 224 (0xE0)
    Format : MPEG Video
    Format version : Version 2
    Format profile : Main@Main
    Format settings, BVOP : Yes
    Format settings, Matrix : Custom
    Format settings, GOP : M=3, N=18
    Duration : 4mn 12s
    Bit rate mode : Variable
    Bit rate : 3 209 Kbps
    Nominal bit rate : 4 000 Kbps
    Width : 480 pixels
    Height : 576 pixels
    Display aspect ratio : 4:3
    Frame rate : 25.000 fps
    Standard : PAL
    Color space : YUV
    Chroma subsampling : 4:2:0
    Bit depth : 8 bits
    Scan type : Interlaced
    Scan order : Bottom Field First
    Compression mode : Lossy
    Bits/(Pixel*Frame) : 0.464
    Stream size : 96.6 MiB (92%)
    Writing library : TMPGEnc 2.59.47.155
    Audio #192
    ID : 192 (0xC0)
    Format : MPEG Audio
    Format version : Version 1
    Format profile : Layer 2
    Duration : 4mn 12s
    Bit rate mode : Constant
    Bit rate : 224 Kbps
    Channel(s) : 2 channels
    Sampling rate : 44.1 KHz
    Compression mode : Lossy
    Stream size : 6.74 MiB (6%)

    Hidden Content:
    You must reply before you can see the hidden data contained here.
     
    shlanderous and JUNINHOSZ like this.
  2. Loading...


  3. Maura

    Maura Well-Known Member

    Joined:
    Apr 7, 2014
    Messages:
    3,086
    Likes Received:
    97
    thanks
     
  4. zuiderheide

    zuiderheide Well-Known Member

    Joined:
    Nov 18, 2013
    Messages:
    2,529
    Likes Received:
    85
  5. xiao_yu_1019

    xiao_yu_1019 Active Member

    Joined:
    Jan 1, 2015
    Messages:
    565
    Likes Received:
    40
    thx a lot
     
  6. uminomiyako

    uminomiyako Well-Known Member

    Joined:
    May 28, 2016
    Messages:
    2,501
    Likes Received:
    95
  7. multimediafm

    multimediafm Well-Known Member Donor

    Joined:
    Mar 27, 2014
    Messages:
    13,001
    Likes Received:
    1,024
  8. sideshow_bob

    sideshow_bob Well-Known Member

    Joined:
    Dec 20, 2013
    Messages:
    3,217
    Likes Received:
    232
  9. wangyuqiang

    wangyuqiang Member

    Joined:
    Jul 21, 2016
    Messages:
    141
    Likes Received:
    6
    thank you
     
  10. JUNINHOSZ

    JUNINHOSZ Well-Known Member

    Joined:
    May 23, 2014
    Messages:
    1,834
    Likes Received:
    57
    thaaanks!
     
  11. kryza

    kryza Member

    Joined:
    Oct 23, 2013
    Messages:
    664
    Likes Received:
    22
    thank u
     
  12. jison

    jison Active Member

    Joined:
    Oct 14, 2015
    Messages:
    753
    Likes Received:
    33
    thanx
     
  13. Amauri Luiz

    Amauri Luiz Well-Known Member

    Joined:
    Jan 14, 2014
    Messages:
    1,858
    Likes Received:
    72
    Thank you!!!
     
  14. John

    John Member

    Joined:
    Oct 30, 2013
    Messages:
    501
    Likes Received:
    5
    thanks
     
  15. Snorom6

    Snorom6 Well-Known Member V . I . P. Uploader

    Joined:
    Dec 17, 2015
    Messages:
    4,248
    Likes Received:
    5,902
  16. mohamad

    mohamad Active Member

    Joined:
    Aug 15, 2016
    Messages:
    201
    Likes Received:
    25
    Usher and Alicia Keys - My Boo (live MTV EMA 2004)
     
  17. carlos69

    carlos69 Well-Known Member

    Joined:
    Dec 17, 2013
    Messages:
    1,257
    Likes Received:
    92
    Thanksss
     
  18. kismakk

    kismakk Member

    Joined:
    Jul 2, 2014
    Messages:
    514
    Likes Received:
    11
    thanks
     
  19. toby876

    toby876 Member

    Joined:
    Feb 6, 2017
    Messages:
    244
    Likes Received:
    2
    thnks
     
  20. Mr.Man

    Mr.Man Active Member

    Joined:
    Jun 15, 2015
    Messages:
    206
    Likes Received:
    114
    Thank you
     
  21. lim

    lim Well-Known Member

    Joined:
    Nov 8, 2013
    Messages:
    2,032
    Likes Received:
    76
    thanks