DVD True Steppers - Out Of Your Mind (Feat. Dane Bowers and Victoria Beckham) (Planet Pop DVD) [VOB]

Discussion in 'SD' started by claudio1301, Jul 31, 2020.

  1. claudio1301

    claudio1301 Well-Known Member V . I . P.

    Joined:
    Oct 2, 2018
    Messages:
    1,488
    Likes Received:
    3,507
    [​IMG]
    Code:
    General
    Complete name                  : True Steppers - Out Of Your Mind (Feat. Dane Bowers and Victoria Beckham (Planet Pop DVD).vob
    Format                         : MPEG-PS
    File size                      : 208 MiB
    Duration                       : 3 min 25 s
    Overall bit rate mode          : Constant
    Overall bit rate               : 8 494 kb/s
    
    Video
    ID                             : 224 (0xE0)
    Format                         : MPEG Video
    Format version                 : Version 2
    Format profile                 : Main@Main
    Format settings                : CustomMatrix / BVOP
    Format settings, BVOP          : Yes
    Format settings, Matrix        : Custom
    Format settings, GOP           : M=3, N=16
    Format settings, picture struc : Frame
    Duration                       : 3 min 25 s
    Bit rate mode                  : Constant
    Bit rate                       : 8 000 kb/s
    Width                          : 720 pixels
    Height                         : 480 pixels
    Display aspect ratio           : 4:3
    Frame rate                     : 29.970 (30000/1001) FPS
    Standard                       : NTSC
    Color space                    : YUV
    Chroma subsampling             : 4:2:0
    Bit depth                      : 8 bits
    Scan type                      : Interlaced
    Scan order                     : Top Field First
    Compression mode               : Lossy
    Bits/(Pixel*Frame)             : 0.772
    Time code of first frame       : 00:00:00:00
    Time code source               : Group of pictures header
    GOP, Open/Closed               : Closed
    Stream size                    : 195 MiB (93%)
    Color primaries                : BT.601 PAL
    Transfer characteristics       : BT.470 System B/G
    Matrix coefficients            : FCC 73.682
    
    Audio
    ID                             : 192 (0xC0)
    Format                         : MPEG Audio
    Format version                 : Version 1
    Format profile                 : Layer 2
    Duration                       : 3 min 25 s
    Bit rate mode                  : Constant
    Bit rate                       : 384 kb/s
    Channel(s)                     : 2 channels
    Sampling rate                  : 48.0 kHz
    Frame rate                     : 41.667 FPS (1152 SPF)
    Compression mode               : Lossy
    Stream size                    : 9.41 MiB (5%)
    Host: Mediafire
    Hidden Content:
    You must reply before you can see the hidden data contained here.
     
    J_Pablo and marcelwithluv like this.
  2. Loading...


  3. 3veronicas

    3veronicas Well-Known Member

    Joined:
    Aug 26, 2016
    Messages:
    5,182
    Likes Received:
    433
    Thanks!
     
  4. jempolgede

    jempolgede Well-Known Member

    Joined:
    Dec 30, 2013
    Messages:
    624
    Likes Received:
    579
    Thanks!
     
  5. jojo335

    jojo335 Well-Known Member

    Joined:
    Jan 18, 2017
    Messages:
    1,149
    Likes Received:
    46
    thanks
     
  6. marcelwithluv

    marcelwithluv Active Member

    Joined:
    Sep 1, 2016
    Messages:
    636
    Likes Received:
    161
    lets see
    thank you
     
  7. phatz

    phatz Member

    Joined:
    Jun 29, 2017
    Messages:
    363
    Likes Received:
    11
    thanks
     
  8. J_Pablo

    J_Pablo Well-Known Member

    Joined:
    Nov 27, 2013
    Messages:
    996
    Likes Received:
    569
    Thanks for sharing this video!
     
  9. Tiago

    Tiago Well-Known Member

    Joined:
    Dec 7, 2013
    Messages:
    3,738
    Likes Received:
    508
    thanks
     
  10. slynx

    slynx Member

    Joined:
    Sep 2, 2020
    Messages:
    82
    Likes Received:
    7
    thanks
     
  11. the_lanoz

    the_lanoz Active Member

    Joined:
    Jan 2, 2017
    Messages:
    539
    Likes Received:
    41
  12. JohnBard

    JohnBard Member

    Joined:
    Apr 13, 2016
    Messages:
    132
    Likes Received:
    10
    thank you!!