Tove Lo feat. Hippie Sabotage - Stay High (Habits Remix) (Trace HD-1080i)-Olgold

Discussion in 'TRACE URBAN HD' started by Olgold, Aug 28, 2015.

  1. Olgold

    Olgold Well-Known Member Capper

    Joined:
    Aug 19, 2015
    Messages:
    386
    Likes Received:
    1,309
    [​IMG]
    General
    Format : MPEG-TS
    File size : 199 MiB
    Duration : 4mn 15s
    Overall bit rate mode : Variable
    Overall bit rate : 6 521 Kbps

    Video
    Format : AVC
    Format/Info : Advanced Video Codec
    Format profile : High@L4
    Format settings, CABAC : Yes
    Format settings, ReFrames : 4 frames
    Duration : 4mn 15s
    Bit rate : 6 005 Kbps
    Width : 1 920 pixels
    Height : 1 080 pixels
    Display aspect ratio : 16:9
    Frame rate : 25.000 fps
    Standard : Component
    Color space : YUV
    Chroma subsampling : 4:2:0
    Bit depth : 8 bits
    Scan type : Interlaced
    Scan order : Top Field First
    Bits/(Pixel*Frame) : 0.116
    Stream size : 183 MiB (92%)
    Color range : Limited

    Audio
    Format : MPEG Audio
    Format version : Version 1
    Format profile : Layer 2
    Duration : 4mn 15s
    Bit rate mode : Constant
    Bit rate : 192 Kbps
    Channel(s) : 2 channels
    Sampling rate : 48.0 KHz
    Compression mode : Lossy
    Delay relative to video : 23ms
    Stream size : 5.85 MiB (3%)
    Language : English

    Hidden Content:
    You must reply before you can see the hidden data contained here.
     
    rhea, 777josem and CELOBRAZiL like this.
  2. Loading...


  3. Dreamer

    Dreamer ♫ It's Britney Bitch ♫ Capper Uploader

    Joined:
    Dec 4, 2014
    Messages:
    2,209
    Likes Received:
    1,924
    Thank you
     
  4. 777josem

    777josem Well-Known Member Uploader

    Joined:
    Sep 1, 2014
    Messages:
    2,423
    Likes Received:
    1,293
    Thank you so much!
     
  5. rhea

    rhea Well-Known Member

    Joined:
    Jan 6, 2014
    Messages:
    5,258
    Likes Received:
    253
    so nice :)
    thank you so much!
     
  6. alvin

    alvin Member

    Joined:
    May 11, 2014
    Messages:
    198
    Likes Received:
    12
    tnk you
     
  7. limonato

    limonato Member

    Joined:
    Dec 1, 2014
    Messages:
    179
    Likes Received:
    0
    Thank you
     
  8. Kestr70

    Kestr70 New Member

    Joined:
    Apr 23, 2014
    Messages:
    15
    Likes Received:
    0
    Thanks!!
     
  9. Kirsche

    Kirsche Member

    Joined:
    Jul 2, 2016
    Messages:
    235
    Likes Received:
    5
    Tanks