MOVIE Touchstone of Ra (2013) 1080p iTunes WEB-DL AAC 2.0 H.264-NOGRP

Discussion in 'Cinema Center' started by nyuszika7h, Aug 12, 2017.

  1. nyuszika7h

    nyuszika7h Well-Known Member

    Joined:
    May 18, 2016
    Messages:
    392
    Likes Received:
    459

    This is the movie following the third and final season of House of Anubis.

    [​IMG] [​IMG]
    [​IMG] [​IMG]

    General
    Unique ID : 231360034111768581993661473724529113273 (0xAE0E525F0FDE1D209D04A1AFAED3F8B9)
    Complete name : Touchstone.of.Ra.2013.1080p.iT.WEB-DL.AAC2.0.H.264-NOGRP.mkv
    Format : Matroska
    Format version : Version 4 / Version 2
    File size : 2.61 GiB
    Duration : 1 h 9 min
    Overall bit rate : 5 401 kb/s
    Movie name : Touchstone of Ra
    Encoded date : UTC 2017-08-12 18:04:29
    Writing application : mkvmerge v14.0.0 ('Flow') 64bit
    Writing library : libebml v1.3.4 + libmatroska v1.4.5

    Video
    ID : 1
    Format : AVC
    Format/Info : Advanced Video Codec
    Format profile : [email protected]
    Format settings, CABAC : Yes
    Format settings, ReFrames : 5 frames
    Codec ID : V_MPEG4/ISO/AVC
    Duration : 1 h 9 min
    Bit rate : 5 241 kb/s
    Width : 1 436 pixels
    Height : 1 076 pixels
    Display aspect ratio : 16:9
    Original display aspect ratio : 16:9
    Frame rate mode : Constant
    Frame rate : 29.970 (30000/1001) FPS
    Color space : YUV
    Chroma subsampling : 4:2:0
    Bit depth : 8 bits
    Scan type : Progressive
    Bits/(Pixel*Frame) : 0.113
    Stream size : 2.54 GiB (97%)
    Default : Yes
    Forced : No
    Color range : Limited
    Color primaries : BT.709
    Transfer characteristics : BT.709
    Matrix coefficients : BT.709

    Audio
    ID : 2
    Format : AAC
    Format/Info : Advanced Audio Codec
    Format profile : LC
    Codec ID : A_AAC
    Duration : 1 h 9 min
    Bit rate : 157 kb/s
    Channel(s) : 2 channels
    Channel positions : Front: L R
    Sampling rate : 48.0 kHz
    Frame rate : 46.875 FPS (1024 spf)
    Compression mode : Lossy
    Stream size : 77.7 MiB (3%)
    Language : English
    Default : Yes
    Forced : No

    Text
    ID : 3
    Format : UTF-8
    Codec ID : S_TEXT/UTF8
    Codec ID/Info : UTF-8 Plain Text
    Duration : 1 h 8 min
    Bit rate : 133 b/s
    Count of elements : 2958
    Stream size : 66.9 KiB (0%)
    Language : English
    Default : No
    Forced : No

    Hidden Content:
    You must either reply or click 'Like' to see the hidden information contained here.
     
    Last edited: Dec 4, 2017
  2. Loading...


  3. Dexter1998

    Dexter1998 Member

    Joined:
    Oct 1, 2016
    Messages:
    132
    Likes Received:
    17
    Thank you!!!!.

    I read you are also gonna do season 2 in iTunes rip. I would love you if you did it. Season 1 is everywher (although it's a shame that they only include the Movie Premiere version of the first five episodes, cause episodes 2, 3, 4 and 5 were cutted and the only logo-less version of getting them is in the official rusian youtube channel of HOA) and Season 2 is impossible to get a hand on iTunes quality.
     
    miki6675 likes this.
  4. miki6675

    miki6675 Member

    Joined:
    Aug 4, 2017
    Messages:
    30
    Likes Received:
    0
    Thanks! I also hope for complete House of Anubis series in iTunes quality.
     
  5. nyuszika7h

    nyuszika7h Well-Known Member

    Joined:
    May 18, 2016
    Messages:
    392
    Likes Received:
    459
    Yes, I'll be posting it soon, and season 1 also in Blu-Ray.
     
    sSD and miki6675 like this.
  6. Dark One

    Dark One Active Member

    Joined:
    May 29, 2017
    Messages:
    302
    Likes Received:
    43
    thanks
     
  7. anthony88

    anthony88 New Member

    Joined:
    May 20, 2017
    Messages:
    13
    Likes Received:
    0
    Thanks!
     
  8. Samuel

    Samuel Well-Known Member

    Joined:
    Apr 12, 2016
    Messages:
    1,199
    Likes Received:
    404
    Please label this as mkv so people would be more assertive of what they're downloading. Like for mine, if I mention "iTunes Plus", they'll know it's original iTunes M4V. :D :p
     
  9. nyuszika7h

    nyuszika7h Well-Known Member

    Joined:
    May 18, 2016
    Messages:
    392
    Likes Received:
    459
    @Samuel It's in the MediaInfo, and I don't think anyone labels original M4Vs "WEB-DL".
     
  10. thecoolboy19

    thecoolboy19 New Member

    Joined:
    Feb 6, 2017
    Messages:
    8
    Likes Received:
    0