TLC - No Scrubs

Discussion in 'SD Live Performances' started by adam dark, Feb 11, 2014.

  1. adam dark

    adam dark Video Music Lover <3 V . I . P.

    Joined:
    Dec 5, 2013
    Messages:
    2,681
    Likes Received:
    5,760
    TLC - No Scrubs

    [​IMG]

    Code:
    General
    Complete name                  : TLC - No Scrubs.vob
    Format                        : MPEG-PS
    File size                      : 264 MiB
    Duration                      : 4mn 21s
    Overall bit rate mode          : Variable
    Overall bit rate              : 8 466 Kbps
    
    Video
    ID                            : 224 (0xE0)
    Format                        : MPEG Video
    Format version                : Version 2
    Format profile                : Main@Main
    Format settings, BVOP          : No
    Format settings, Matrix        : Custom
    Format settings, GOP          : M=3, N=15
    Duration                      : 4mn 21s
    Bit rate mode                  : Variable
    Bit rate                      : 6 154 Kbps
    Maximum bit rate              : 9 800 Kbps
    Width                          : 720 pixels
    Height                        : 480 pixels
    Display aspect ratio          : 4:3
    Frame rate                    : 29.970 fps
    Standard                      : NTSC
    Color space                    : YUV
    Chroma subsampling            : 4:2:0
    Bit depth                      : 8 bits
    Scan type                      : Interlaced
    Scan order                    : Top Field First
    Compression mode              : Lossy
    Bits/(Pixel*Frame)            : 0.594
    Time code of first frame      : 01:42:56:06
    Time code source              : Group of pictures header
    Stream size                    : 192 MiB (73%)
    
    Audio #1
    ID                            : 189 (0xBD)-129 (0x81)
    Format                        : AC-3
    Format/Info                    : Audio Coding 3
    Mode extension                : CM (complete main)
    Format settings, Endianness    : Big
    Muxing mode                    : DVD-Video
    Duration                      : 4mn 21s
    Bit rate mode                  : Constant
    Bit rate                      : 448 Kbps
    Channel count                  : 6 channels
    Channel positions              : Front: L C R, Side: L R, LFE
    Sampling rate                  : 48.0 KHz
    Bit depth                      : 16 bits
    Compression mode              : Lossy
    Delay relative to video        : 2ms
    Stream size                    : 14.0 MiB (5%)
    
    Audio #2
    ID                            : 189 (0xBD)-130 (0x82)
    Format                        : AC-3
    Format/Info                    : Audio Coding 3
    Mode extension                : CM (complete main)
    Format settings, Endianness    : Big
    Muxing mode                    : DVD-Video
    Duration                      : 4mn 21s
    Bit rate mode                  : Constant
    Bit rate                      : 160 Kbps
    Channel count                  : 2 channels
    Channel positions              : Front: L R
    Sampling rate                  : 48.0 KHz
    Bit depth                      : 16 bits
    Compression mode              : Lossy
    Delay relative to video        : 2ms
    Stream size                    : 4.99 MiB (2%)
    
    Audio #3
    ID                            : 189 (0xBD)-160 (0xA0)
    Format                        : PCM
    Format settings, Endianness    : Big
    Format settings, Sign          : Signed
    Muxing mode                    : DVD-Video
    Duration                      : 4mn 21s
    Bit rate mode                  : Constant
    Bit rate                      : 1 536 Kbps
    Channel count                  : 2 channels
    Sampling rate                  : 48.0 KHz
    Bit depth                      : 16 bits
    Delay relative to video        : -42ms
    Stream size                    : 47.9 MiB (18%)
    Hidden Content:
    You must either reply or click 'Like' to see the hidden information contained here.
    Credit to the original capper
     
  2. Amauri Luiz

    Amauri Luiz Well-Known Member

    Joined:
    Jan 14, 2014
    Messages:
    2,009
    Likes Received:
    83
    Thank you so much!
     
  3. adam dark

    adam dark Video Music Lover <3 V . I . P.

    Joined:
    Dec 5, 2013
    Messages:
    2,681
    Likes Received:
    5,760
    you're welcome!! :)
     
  4. kryza

    kryza Member

    Joined:
    Oct 23, 2013
    Messages:
    691
    Likes Received:
    22
    thanks
     
  5. BoogyWoogy

    BoogyWoogy Well-Known Member Donor

    Joined:
    Jan 9, 2014
    Messages:
    1,177
    Likes Received:
    6,906
    Thanks !
     
  6. Osh Şarif

    Osh Şarif Well-Known Member

    Joined:
    Dec 29, 2013
    Messages:
    361
    Likes Received:
    810
    Thanks dear <3
     
  7. Humberto

    Humberto Member

    Joined:
    Dec 9, 2013
    Messages:
    279
    Likes Received:
    16
    Pleasssse more tlc videos, live performance please
     
  8. Humberto

    Humberto Member

    Joined:
    Dec 9, 2013
    Messages:
    279
    Likes Received:
    16
    Pleasssse more tlc videos, live performance please
     
  9. multimediafm

    multimediafm Well-Known Member Donor

    Joined:
    Mar 27, 2014
    Messages:
    13,498
    Likes Received:
    1,063
  10. adam dark

    adam dark Video Music Lover <3 V . I . P.

    Joined:
    Dec 5, 2013
    Messages:
    2,681
    Likes Received:
    5,760
    you're welcome!
     
  11. quake2

    quake2 Well-Known Member

    Joined:
    Oct 11, 2014
    Messages:
    1,667
    Likes Received:
    145
  12. rvaldivia

    rvaldivia Member

    Joined:
    May 12, 2015
    Messages:
    82
    Likes Received:
    0
    thank uuu!!!!!!!!!!!
     
  13. mayoaries

    mayoaries Member

    Joined:
    Dec 8, 2015
    Messages:
    43
    Likes Received:
    6
    thank you!
     
  14. yertirby

    yertirby Member

    Joined:
    Dec 25, 2015
    Messages:
    212
    Likes Received:
    3
    thanks
     
  15. Snorom6

    Snorom6 Well-Known Member V . I . P. Uploader

    Joined:
    Dec 17, 2015
    Messages:
    4,246
    Likes Received:
    6,227
  16. sideshow_bob

    sideshow_bob Well-Known Member

    Joined:
    Dec 20, 2013
    Messages:
    3,255
    Likes Received:
    239
  17. zeqonbritney

    zeqonbritney Active Member

    Joined:
    Dec 2, 2015
    Messages:
    582
    Likes Received:
    101
  18. panostsak

    panostsak New Member

    Joined:
    Aug 31, 2016
    Messages:
    11
    Likes Received:
    0
    SWEEEEEEEEEET
    TLC - No Scrubs

    [​IMG]

    Code:
    General
    Complete name                  : TLC - No Scrubs.vob
    Format                        : MPEG-PS
    File size                      : 264 MiB
    Duration                      : 4mn 21s
    Overall bit rate mode          : Variable
    Overall bit rate              : 8 466 Kbps
    
    Video
    ID                            : 224 (0xE0)
    Format                        : MPEG Video
    Format version                : Version 2
    Format profile                : Main@Main
    Format settings, BVOP          : No
    Format settings, Matrix        : Custom
    Format settings, GOP          : M=3, N=15
    Duration                      : 4mn 21s
    Bit rate mode                  : Variable
    Bit rate                      : 6 154 Kbps
    Maximum bit rate              : 9 800 Kbps
    Width                          : 720 pixels
    Height                        : 480 pixels
    Display aspect ratio          : 4:3
    Frame rate                    : 29.970 fps
    Standard                      : NTSC
    Color space                    : YUV
    Chroma subsampling            : 4:2:0
    Bit depth                      : 8 bits
    Scan type                      : Interlaced
    Scan order                    : Top Field First
    Compression mode              : Lossy
    Bits/(Pixel*Frame)            : 0.594
    Time code of first frame      : 01:42:56:06
    Time code source              : Group of pictures header
    Stream size                    : 192 MiB (73%)
    
    Audio #1
    ID                            : 189 (0xBD)-129 (0x81)
    Format                        : AC-3
    Format/Info                    : Audio Coding 3
    Mode extension                : CM (complete main)
    Format settings, Endianness    : Big
    Muxing mode                    : DVD-Video
    Duration                      : 4mn 21s
    Bit rate mode                  : Constant
    Bit rate                      : 448 Kbps
    Channel count                  : 6 channels
    Channel positions              : Front: L C R, Side: L R, LFE
    Sampling rate                  : 48.0 KHz
    Bit depth                      : 16 bits
    Compression mode              : Lossy
    Delay relative to video        : 2ms
    Stream size                    : 14.0 MiB (5%)
    
    Audio #2
    ID                            : 189 (0xBD)-130 (0x82)
    Format                        : AC-3
    Format/Info                    : Audio Coding 3
    Mode extension                : CM (complete main)
    Format settings, Endianness    : Big
    Muxing mode                    : DVD-Video
    Duration                      : 4mn 21s
    Bit rate mode                  : Constant
    Bit rate                      : 160 Kbps
    Channel count                  : 2 channels
    Channel positions              : Front: L R
    Sampling rate                  : 48.0 KHz
    Bit depth                      : 16 bits
    Compression mode              : Lossy
    Delay relative to video        : 2ms
    Stream size                    : 4.99 MiB (2%)
    
    Audio #3
    ID                            : 189 (0xBD)-160 (0xA0)
    Format                        : PCM
    Format settings, Endianness    : Big
    Format settings, Sign          : Signed
    Muxing mode                    : DVD-Video
    Duration                      : 4mn 21s
    Bit rate mode                  : Constant
    Bit rate                      : 1 536 Kbps
    Channel count                  : 2 channels
    Sampling rate                  : 48.0 KHz
    Bit depth                      : 16 bits
    Delay relative to video        : -42ms
    Stream size                    : 47.9 MiB (18%)
    ***Hidden content cannot be quoted.***

    Credit to the original capper
    [/QUOTE]
     
  19. you_are_ben

    you_are_ben Member

    Joined:
    Nov 23, 2016
    Messages:
    42
    Likes Received:
    4
    more TLC videos please. and t4p!
     
  20. shoter350

    shoter350 Member

    Joined:
    Dec 12, 2016
    Messages:
    140
    Likes Received:
    1
    thanks!