Tinashe - Party Favors (BIS.HD.1080i.DD5.1).-Crusha

Discussion in 'BIS HD' started by Crusha, Feb 1, 2016.

  1. Crusha

    Crusha Well-Known Member Capper

    Joined:
    Oct 15, 2014
    Messages:
    2,350
    Likes Received:
    2,415
    [​IMG]

    Mediainfo
    General
    ID : 1 (0x1)
    Complete name : Tinashe - Party Favors (BIS.HD.1080i.DD5.1).-Crusha.ts
    Format : MPEG-TS
    File size : 89.2 MiB
    Duration : 3mn 25s
    Overall bit rate mode : Variable
    Overall bit rate : 3 648 Kbps

    Video
    ID : 2027 (0x7EB)
    Menu ID : 802 (0x322)
    Format : AVC
    Format/Info : Advanced Video Codec
    Format profile : [email protected]
    Format settings, CABAC : Yes
    Format settings, ReFrames : 4 frames
    Codec ID : 27
    Duration : 3mn 24s
    Bit rate : 3 080 Kbps
    Width : 1 920 pixels
    Height : 1 080 pixels
    Display aspect ratio : 16:9
    Frame rate : 29.970 fps
    Standard : Component
    Color space : YUV
    Chroma subsampling : 4:2:0
    Bit depth : 8 bits
    Scan type : MBAFF
    Scan order : Top Field First
    Bits/(Pixel*Frame) : 0.050
    Stream size : 75.2 MiB (84%)
    Color range : Limited
    Color primaries : BT.709
    Transfer characteristics : BT.709
    Matrix coefficients : BT.709

    Audio
    ID : 3027 (0xBD3)
    Menu ID : 802 (0x322)
    Format : AC-3
    Format/Info : Audio Coding 3
    Mode extension : CM (complete main)
    Format settings, Endianness : Big
    Codec ID : 6
    Duration : 3mn 24s
    Bit rate mode : Constant
    Bit rate : 384 Kbps
    Channel(s) : 6 channels
    Channel positions : Front: L C R, Side: L R, LFE
    Sampling rate : 48.0 KHz
    Bit depth : 16 bits
    Compression mode : Lossy
    Stream size : 9.38 MiB (11%)
    Language : English

    Hidden Content:
    You must either reply or click 'Like' to see the hidden information contained here.
    Password:
    crusha
     
    skyisup and Alvena like this.
  2. brian182

    brian182 Well-Known Member

    Joined:
    Oct 14, 2013
    Messages:
    1,750
    Likes Received:
    60
    thanks!! lol
     
  3. Dyoggo

    Dyoggo Member

    Joined:
    May 14, 2014
    Messages:
    599
    Likes Received:
    10
    thanks
     
  4. WFSJ92

    WFSJ92 Member

    Joined:
    Aug 23, 2014
    Messages:
    349
    Likes Received:
    21
    thank you