Timbaland feat. Katy Perry - If We Ever Meet Again (TRACEURBANHD-1080i-MPA2.0-Djodjara)-HDMania

Discussion in 'TRACE URBAN HD' started by Djodjara, Oct 23, 2014.

  1. Djodjara

    Djodjara Gwen Fan Capper

    Joined:
    Sep 6, 2014
    Messages:
    714
    Likes Received:
    1,175
    Timbaland feat. Katy Perry - If We Ever Meet Again (Trace Urban HD 1080i - Djodjara)

    [​IMG]
    [​IMG]


    General:
    ID : 38 (0x26)
    Format : MPEG-TS
    File size : 271 MiB
    Duration : 4mn 58s
    Overall bit rate mode : Variable
    Overall bit rate : 7 614 Kbps

    Video:
    ID : 1353 (0x549)
    Menu ID : 7059 (0x1B93)
    Format : AVC
    Format/Info : Advanced Video Codec
    Format profile : [email protected]
    Format settings, CABAC : Yes
    Format settings, ReFrames : 4 frames
    Codec ID : 27
    Duration : 4mn 58s
    Bit rate : 7 044 Kbps
    Width : 1 920 pixels
    Height : 1 080 pixels
    Display aspect ratio : 16:9
    Frame rate : 25.000 fps
    Standard : Component
    Color space : YUV
    Chroma subsampling : 4:2:0
    Bit depth : 8 bits
    Scan type : Interlaced
    Bits/(Pixel*Frame) : 0.136
    Stream size : 251 MiB (92%)
    Color primaries : BT.709
    Transfer characteristics : BT.709
    Matrix coefficients : BT.709

    Audio:
    ID : 3374 (0xD2E)
    Menu ID : 7059 (0x1B93)
    Format : MPEG Audio
    Format version : Version 1
    Format profile : Layer 2
    Codec ID : 4
    Duration : 4mn 58s
    Bit rate mode : Constant
    Bit rate : 192 Kbps
    Channel count : 2 channels
    Sampling rate : 48.0 KHz
    Compression mode : Lossy
    Delay relative to video : 136ms
    Stream size : 6.83 MiB (3%)
    Language : English

    Hidden Content:
    You must reply before you can see the hidden data contained here.
     
    CELOBRAZiL, Kensing, alex and 2 others like this.
  2. Loading...


  3. Katheryn

    Katheryn Well-Known Member

    Joined:
    Nov 29, 2013
    Messages:
    994
    Likes Received:
    2,292
    Thank you so much ! :D:victory:
     
  4. rhea

    rhea Well-Known Member

    Joined:
    Jan 6, 2014
    Messages:
    5,703
    Likes Received:
    367
    thanks a lot!
     
  5. xilak

    xilak Member

    Joined:
    May 20, 2014
    Messages:
    706
    Likes Received:
    7
    thanks
     
  6. Escalade1080p

    Escalade1080p Member

    Joined:
    Nov 20, 2013
    Messages:
    492
    Likes Received:
    14
  7. Crusha

    Crusha Well-Known Member Capper

    Joined:
    Oct 15, 2014
    Messages:
    2,350
    Likes Received:
    2,252
    thank you
     
  8. ytyh

    ytyh Member

    Joined:
    Mar 30, 2014
    Messages:
    432
    Likes Received:
    4
    Thank you so much!!!
     
  9. Kensing

    Kensing Member

    Joined:
    Dec 27, 2013
    Messages:
    258
    Likes Received:
    0
    Thanks
     
  10. falk

    falk Member

    Joined:
    Apr 9, 2014
    Messages:
    122
    Likes Received:
    18
    Many Thanks
     
  11. Winged

    Winged Active Member

    Joined:
    Sep 19, 2014
    Messages:
    287
    Likes Received:
    28
    Thanks!
     
  12. alpainsponge

    alpainsponge Member

    Joined:
    Sep 23, 2014
    Messages:
    33
    Likes Received:
    1
    thanks
     
  13. arcangel

    arcangel Member

    Joined:
    Nov 30, 2014
    Messages:
    77
    Likes Received:
    0
  14. znake

    znake Active Member

    Joined:
    Oct 25, 2013
    Messages:
    503
    Likes Received:
    70
    Wow

    thanks cutieee
     
  15. zikkzakk

    zikkzakk Member

    Joined:
    Dec 29, 2014
    Messages:
    55
    Likes Received:
    2
    danke
     
    taojia likes this.
  16. maxpayne32

    maxpayne32 New Member

    Joined:
    Mar 21, 2015
    Messages:
    17
    Likes Received:
    0
    thank you
     
  17. javier vega

    javier vega Member

    Joined:
    Nov 16, 2013
    Messages:
    225
    Likes Received:
    4
    Katy preciosa <3
     
  18. yanpj7

    yanpj7 Member

    Joined:
    Jan 4, 2015
    Messages:
    143
    Likes Received:
    4
    thank you
     
  19. Dreamer

    Dreamer Lana Del Rey ♥ Capper V . I . P. Uploader

    Joined:
    Dec 4, 2014
    Messages:
    2,514
    Likes Received:
    2,696
    Thank you
     
  20. limonato

    limonato Member

    Joined:
    Dec 1, 2014
    Messages:
    205
    Likes Received:
    3
    thank you
     
  21. merrylorie

    merrylorie Member

    Joined:
    Feb 25, 2016
    Messages:
    115
    Likes Received:
    0