Timbaland feat. Katy Perry If We Ever Meet Again 1080i

Discussion in 'Music Videos' started by KallumLavigne, Feb 4, 2014.

  1. KallumLavigne

    KallumLavigne Well-Known Member

    Joined:
    Nov 18, 2013
    Messages:
    678
    Likes Received:
    1,399
    [​IMG]
    Code:
    Complete name                  : Timbaland feat. Katy Perry - If We Ever Meet Again HDTV 1080i.ts
    Format                        : MPEG-TS
    File size                      : 176 MiB
    Duration                      : 4mn 59s
    Overall bit rate mode          : Variable
    Overall bit rate              : 4 935 Kbps
    Maximum Overall bit rate      : 35.5 Mbps
    
    Video
    ID                            : 4113 (0x1011)
    Menu ID                        : 1 (0x1)
    Format                        : AVC
    Codec ID                      : 27
    Duration                      : 4mn 59s
    Bit rate mode                  : Variable
    Bit rate                      : 4 303 Kbps
    Maximum bit rate              : 15.0 Mbps
    Width                          : 1 440 pixels
    Height                        : 1 080 pixels
    Display aspect ratio          : 16:9
    Frame rate                    : 29.970 fps
    Color space                    : YUV
    Chroma subsampling            : 4:2:0
    Bit depth                      : 8 bits
    Scan type                      : MBAFF
    Bits/(Pixel*Frame)            : 0.092
    Stream size                    : 153 MiB (87%)
    
    Audio
    ID                            : 4352 (0x1100)
    Menu ID                        : 1 (0x1)
    Format                        : AC-3
    Format/Info                    : Audio Coding 3
    Mode extension                : CM (complete main)
    Format settings, Endianness    : Big
    Codec ID                      : 129
    Duration                      : 4mn 59s
    Bit rate mode                  : Constant
    Bit rate                      : 384 Kbps
    Channel count                  : 2 channels
    Channel positions              : Front: L R
    Sampling rate                  : 48.0 KHz
    Bit depth                      : 16 bits
    Compression mode              : Lossy
    Delay relative to video        : -3ms
    Stream size                    : 13.7 MiB (8%)
    Hidden Content:
    You must reply before you can see the hidden data contained here.
     
    SOMBER, Sapiens69, z3ro and 16 others like this.
  2. Loading...


  3. znake

    znake Active Member

    Joined:
    Oct 25, 2013
    Messages:
    502
    Likes Received:
    73
    I was searching this video!!!!!!!!!!!!!!!! :love::happy:
     
  4. Katheryn

    Katheryn Well-Known Member

    Joined:
    Nov 29, 2013
    Messages:
    994
    Likes Received:
    2,506
  5. brian182

    brian182 Well-Known Member

    Joined:
    Oct 14, 2013
    Messages:
    2,142
    Likes Received:
    121
    thanks..
     
  6. ljyjzj

    ljyjzj Well-Known Member

    Joined:
    Oct 9, 2013
    Messages:
    429
    Likes Received:
    2,204
  7. elejido10

    elejido10 Member

    Joined:
    Oct 27, 2013
    Messages:
    197
    Likes Received:
    1
  8. ePhysician

    ePhysician Active Member

    Joined:
    Jan 12, 2014
    Messages:
    455
    Likes Received:
    138
    Thanks
     
  9. yporqueno

    yporqueno Member

    Joined:
    Feb 12, 2014
    Messages:
    209
    Likes Received:
    14
     
  10. aaron

    aaron Active Member

    Joined:
    Dec 17, 2013
    Messages:
    246
    Likes Received:
    176
    thanks
     
  11. lim

    lim Well-Known Member

    Joined:
    Nov 8, 2013
    Messages:
    2,032
    Likes Received:
    76
    thanks
     
  12. Chris

    Chris Active Member

    Joined:
    Oct 19, 2013
    Messages:
    755
    Likes Received:
    26
    Thank you
     
  13. auorine

    auorine Member

    Joined:
    Nov 23, 2013
    Messages:
    56
    Likes Received:
    0
    Thanks a lot
     
  14. riv

    riv Member

    Joined:
    Feb 24, 2014
    Messages:
    60
    Likes Received:
    0
  15. danixat

    danixat Katycat ^-^ Capper V . I . P. Donor

    Joined:
    Feb 23, 2014
    Messages:
    1,202
    Likes Received:
    7,781
    Ty
     
  16. pablo palormo

    pablo palormo Member

    Joined:
    Oct 27, 2013
    Messages:
    177
    Likes Received:
    2
  17. BoogyWoogy

    BoogyWoogy Well-Known Member Donor

    Joined:
    Jan 9, 2014
    Messages:
    1,177
    Likes Received:
    6,716
    Thanks !
     
  18. End

    End Member

    Joined:
    Nov 17, 2013
    Messages:
    161
    Likes Received:
    1
    tnx
     
  19. Osh Şarif

    Osh Şarif Well-Known Member

    Joined:
    Dec 29, 2013
    Messages:
    360
    Likes Received:
    789
    Thanks dear <3
     
  20. swarup dutta

    swarup dutta Member

    Joined:
    Dec 29, 2013
    Messages:
    77
    Likes Received:
    3
  21. mitsuki1993

    mitsuki1993 New Member

    Joined:
    Jan 19, 2014
    Messages:
    19
    Likes Received:
    0
    thanks u