Tiesto & KSHMR feat. Vassy - Secrets (MTVIdol-1080i-DD2.0)-Olgold

Discussion in 'MTV IDOL' started by Olgold, Aug 20, 2015.

  1. Olgold

    Olgold Well-Known Member Capper

    Joined:
    Aug 19, 2015
    Messages:
    436
    Likes Received:
    1,634
    [​IMG]
    General
    Format : MPEG-TS
    File size : 108 MiB
    Duration : 3mn 26s
    Overall bit rate mode : Variable
    Overall bit rate : 4 374 Kbps

    Video
    Format : AVC
    Format/Info : Advanced Video Codec
    Format profile : [email protected]
    Format settings, CABAC : Yes
    Format settings, ReFrames : 4 frames
    Duration : 3mn 26s
    Bit rate : 3 964 Kbps
    Width : 1 920 pixels
    Height : 1 080 pixels
    Display aspect ratio : 16:9
    Frame rate : 25.000 fps
    Standard : Component
    Color space : YUV
    Chroma subsampling : 4:2:0
    Bit depth : 8 bits
    Scan type : MBAFF
    Scan order : Top Field First
    Bits/(Pixel*Frame) : 0.076
    Stream size : 97.8 MiB (91%)
    Encryption : Seca Mediaguard 1/2
    Color range : Limited

    Audio
    Format : AC-3
    Format/Info : Audio Coding 3
    Mode extension : CM (complete main)
    Format settings, Endianness : Big
    Duration : 3mn 26s
    Bit rate mode : Constant
    Bit rate : 192 Kbps
    Channel(s) : 2 channels
    Channel positions : Front: L R
    Sampling rate : 48.0 KHz
    Compression mode : Lossy
    Delay relative to video : -6ms
    Stream size : 4.74 MiB (4%)
    Language : French

    Hidden Content:
    You must reply before you can see the hidden data contained here.
     
  2. Hyrus

    Hyrus Arianator / Selenator / Victorian / Saxobeat / LBS Donor

    Joined:
    Feb 9, 2015
    Messages:
    1,196
    Likes Received:
    815
    Thanks. I haven't heard this song yet. hope it's good:lol:
     
  3. Crusha

    Crusha Well-Known Member Capper

    Joined:
    Oct 15, 2014
    Messages:
    2,350
    Likes Received:
    2,365
    thank you
     
  4. rhea

    rhea Well-Known Member

    Joined:
    Jan 6, 2014
    Messages:
    6,145
    Likes Received:
    496
    thank you so much
     
  5. cero

    cero Member

    Joined:
    Nov 1, 2013
    Messages:
    104
    Likes Received:
    1
    cool song!!
     
  6. MCTR

    MCTR Active Member

    Joined:
    Feb 23, 2014
    Messages:
    293
    Likes Received:
    35
    thank you
     
  7. Dreamer

    Dreamer Lana Del Rey ♥ Capper V . I . P. Uploader

    Joined:
    Dec 4, 2014
    Messages:
    2,640
    Likes Received:
    3,153
    Thank you so much! :)
     
  8. Pavulon

    Pavulon Well-Known Member

    Joined:
    Mar 22, 2016
    Messages:
    2,257
    Likes Received:
    175
    thanks
     
  9. tapions

    tapions Active Member

    Joined:
    Aug 30, 2016
    Messages:
    870
    Likes Received:
    64
    gracias
     
  10. revilo18

    revilo18 Well-Known Member

    Joined:
    May 26, 2016
    Messages:
    1,644
    Likes Received:
    75
    THANKKK
     
  11. Zeeh

    Zeeh Member

    Joined:
    Mar 20, 2015
    Messages:
    582
    Likes Received:
    12
    Thank you
     
  12. rvden

    rvden Active Member

    Joined:
    Apr 9, 2017
    Messages:
    304
    Likes Received:
    142
    Thanks
     
  13. JSmoove

    JSmoove Member

    Joined:
    Nov 27, 2013
    Messages:
    60
    Likes Received:
    1
    thank you!
     
  14. noriscout

    noriscout Active Member

    Joined:
    Apr 26, 2017
    Messages:
    290
    Likes Received:
    47
    Thanks, friendugan