The Weeknd - The Hills (BridgeHD-1080i-MP2-Olgold)-HDMania

Discussion in 'Bridge HD' started by Olgold, Oct 10, 2016.

  1. Olgold

    Olgold Well-Known Member Capper

    Joined:
    Aug 19, 2015
    Messages:
    436
    Likes Received:
    1,786
    The Weeknd - The Hills
    [​IMG]
    General
    Format : MPEG-TS
    File size : 145 MiB
    Duration : 3 min 52 s
    Overall bit rate mode : Variable
    Overall bit rate : 5 229 kb/s

    Video
    Format : AVC
    Format/Info : Advanced Video Codec
    Format profile : High@L4
    Format settings, CABAC : Yes
    Format settings, ReFrames : 4 frames
    Duration : 3 min 52 s
    Bit rate : 4 776 kb/s
    Width : 1 920 pixels
    Height : 1 080 pixels
    Display aspect ratio : 16:9
    Frame rate : 25.000 FPS
    Standard : Component
    Color space : YUV
    Chroma subsampling : 4:2:0
    Bit depth : 8 bits
    Scan type : Interlaced
    Scan type, store method : Separated fields
    Scan order : Top Field First
    Bits/(Pixel*Frame) : 0.092
    Stream size : 132 MiB (91%)
    Color range : Limited

    Audio
    Format : MPEG Audio
    Format version : Version 1
    Format profile : Layer 2
    Duration : 3 min 52 s
    Bit rate mode : Constant
    Bit rate : 192 kb/s
    Channel(s) : 2 channels
    Sampling rate : 48.0 kHz
    Compression mode : Lossy
    Delay relative to video : -16 ms
    Stream size : 5.31 MiB (4%)
    Password: Olgold

    Hidden Content:
    You must reply before you can see the hidden data contained here.
     
    Eric., mjjmusic, lastxdance and 3 others like this.
  2. Loading...


  3. rhea

    rhea Well-Known Member

    Joined:
    Jan 6, 2014
    Messages:
    7,848
    Likes Received:
    1,002
    thank you so much
     
  4. CELOBRAZiL

    CELOBRAZiL Well-Known Member Capper V . I . P. Donor

    Joined:
    Oct 2, 2013
    Messages:
    5,293
    Likes Received:
    16,871
    Thank you so much! :)
     
  5. 123

    123 Member

    Joined:
    Jun 22, 2016
    Messages:
    195
    Likes Received:
    3
    thanks
     
  6. Tabis

    Tabis Member

    Joined:
    Dec 1, 2015
    Messages:
    244
    Likes Received:
    1
    Thanks
     
  7. NikoZeman

    NikoZeman Member

    Joined:
    Nov 23, 2016
    Messages:
    96
    Likes Received:
    1
    Thanks very good song
     
  8. mjjmusic

    mjjmusic Member

    Joined:
    Feb 4, 2017
    Messages:
    170
    Likes Received:
    2
    thanks
     
  9. erroljr1977

    erroljr1977 Member

    Joined:
    Apr 18, 2017
    Messages:
    472
    Likes Received:
    15
    thanks
     
  10. bezvezesad

    bezvezesad Member

    Joined:
    May 25, 2017
    Messages:
    782
    Likes Received:
    17
  11. Eric.

    Eric. New Member

    Joined:
    Apr 7, 2017
    Messages:
    18
    Likes Received:
    0
    thnks.