The Weekend - Call Out By My Name & Try Me [Vertical Video]

Discussion in 'Music Videos' started by JimmySwifties, Apr 3, 2018.

  1. JimmySwifties

    JimmySwifties [Uploader] and [Requester]

    Joined:
    Mar 23, 2017
    Messages:
    240
    Likes Received:
    428
    [​IMG]
    Code:
    General
    Complete name                            :Call Out By My Name.mp4
    Format                                   : MPEG-4
    Format profile                           : Base Media
    Codec ID                                 : isom
    File size                                : 58.8 MiB
    Duration                                 : 3mn 45s
    Overall bit rate                         : 2 185 Kbps
    Movie name                               : Call Out By My Name
    Writing application                      : Lavf57.41.100
    
    Video
    ID                                       : 1
    Format                                   : MPEG-4 Visual
    Codec ID                                 : 20
    Duration                                 : 3mn 45s
    Bit rate mode                            : Constant
    Bit rate                                 : 2 049 Kbps
    Width                                    : 718 pixels
    Height                                   : 1 280 pixels
    Display aspect ratio                     : 0.561
    Frame rate mode                          : Constant
    Frame rate                               : 30.000 fps
    Compression mode                         : Lossy
    Bits/(Pixel*Frame)                       : 0.074
    Stream size                              : 55.2 MiB (94%)
    
    Audio
    ID                                       : 2
    Format                                   : AAC
    Format/Info                              : Advanced Audio Codec
    Format profile                           : LC
    Codec ID                                 : 40
    Duration                                 : 3mn 45s
    Duration_LastFrame                       : -22ms
    Bit rate mode                            : Constant
    Bit rate                                 : 129 Kbps
    Channel(s)                               : 2 channels
    Channel positions                        : Front: L R
    Sampling rate                            : 44.1 KHz
    Compression mode                         : Lossy
    Stream size                              : 3.47 MiB (6%)
    
    Hidden Content:
    You must reply before you can see the hidden data contained here.
    [​IMG]
    Code:
    General
    Complete name                            : Try Me.mp4
    Format                                   : MPEG-4
    Format profile                           : Base Media
    Codec ID                                 : isom
    File size                                : 21.8 MiB
    Duration                                 : 3mn 41s
    Overall bit rate                         : 826 Kbps
    Movie name                               : Try Me
    Writing application                      : Lavf56.40.101
    
    Video
    ID                                       : 1
    Format                                   : AVC
    Format/Info                              : Advanced Video Codec
    Format profile                           : High@L3.1
    Format settings, CABAC                   : Yes
    Format settings, ReFrames                : 5 frames
    Codec ID                                 : avc1
    Codec ID/Info                            : Advanced Video Coding
    Duration                                 : 3mn 40s
    Bit rate                                 : 773 Kbps
    Width                                    : 718 pixels
    Height                                   : 1 280 pixels
    Display aspect ratio                     : 0.561
    Frame rate mode                          : Constant
    Frame rate                               : 30.000 fps
    Color space                              : YUV
    Chroma subsampling                       : 4:2:0
    Bit depth                                : 8 bits
    Scan type                                : Progressive
    Bits/(Pixel*Frame)                       : 0.028
    Stream size                              : 20.3 MiB (93%)
    Writing library                          : x264 core 148
    Encoding settings                        : cabac=1 / ref=5 / deblock=1:0:0 / analyse=0x3:0x113 / me=hex / subme=6 / psy=0 / mixed_ref=1 / me_range=16 / chroma_me=1 / trellis=1 / 8x8dct=1 / cqm=0 / deadzone=21,11 / fast_pskip=1 / chroma_qp_offset=0 / threads=40 / lookahead_threads=6 / sliced_threads=0 / nr=0 / decimate=1 / interlaced=0 / bluray_compat=0 / constrained_intra=0 / bframes=3 / b_pyramid=2 / b_adapt=1 / b_bias=0 / direct=1 / weightb=1 / open_gop=0 / weightp=1 / keyint=90 / keyint_min=9 / scenecut=40 / intra_refresh=0 / rc_lookahead=30 / rc=crf / mbtree=1 / crf=27.0 / qcomp=0.60 / qpmin=0 / qpmax=69 / qpstep=4 / vbv_maxrate=2500 / vbv_bufsize=5000 / crf_max=0.0 / nal_hrd=none / filler=0 / ip_ratio=1.40 / aq=2:1.00
    
    Audio
    ID                                       : 2
    Format                                   : AAC
    Format/Info                              : Advanced Audio Codec
    Format profile                           : HE-AAC / LC
    Codec ID                                 : 40
    Duration                                 : 3mn 41s
    Duration_LastFrame                       : 83ms
    Bit rate mode                            : Constant
    Bit rate                                 : 48.0 Kbps
    Channel(s)                               : 2 channels
    Channel positions                        : Front: L R
    Sampling rate                            : 48.0 KHz / 24.0 KHz
    Compression mode                         : Lossy
    Delay relative to video                  : -6s 0ms
    Stream size                              : 1.26 MiB (6%)
    
    Hidden Content:
    You must reply before you can see the hidden data contained here.
     
    brunosantostar likes this.
  2. Loading...


  3. lloydminaj

    lloydminaj Nicki Minaj stan

    Joined:
    Jan 23, 2017
    Messages:
    445
    Likes Received:
    287
    Thank you
     
  4. Yash99

    Yash99 Active Member

    Joined:
    Dec 22, 2017
    Messages:
    110
    Likes Received:
    39
    Thank U Boy
     
  5. Hossein Enr7que

    Hossein Enr7que Enriquette . ZQUAD . XO V . I . P. Uploader

    Joined:
    May 13, 2016
    Messages:
    1,392
    Likes Received:
    4,602
  6. Yash99

    Yash99 Active Member

    Joined:
    Dec 22, 2017
    Messages:
    110
    Likes Received:
    39
    Can we get that videos more clear 1080p
     
  7. BetaKsi

    BetaKsi Well-Known Member

    Joined:
    Oct 18, 2015
    Messages:
    2,119
    Likes Received:
    572
    Thank you))
     
  8. clayeon

    clayeon New Member

    Joined:
    Jun 12, 2017
    Messages:
    17
    Likes Received:
    5
    Thanks a lot
     
  9. Mozzie

    Mozzie Member

    Joined:
    Nov 6, 2017
    Messages:
    199
    Likes Received:
    16
    thanks
     
  10. yj5

    yj5 Member

    Joined:
    Sep 5, 2016
    Messages:
    39
    Likes Received:
    4
    Muchas Gracias
     
  11. Wahabisbest

    Wahabisbest New Member

    Joined:
    Jul 9, 2017
    Messages:
    16
    Likes Received:
    0
    Hell yes fammm but can you upload in 1080p?.
     
  12. Carlos

    Carlos Active Member

    Joined:
    May 4, 2014
    Messages:
    670
    Likes Received:
    59
    thanks
     
  13. Rakisney

    Rakisney Member

    Joined:
    Feb 6, 2018
    Messages:
    235
    Likes Received:
    11
  14. Sergio_rammar

    Sergio_rammar Member

    Joined:
    Jul 24, 2017
    Messages:
    375
    Likes Received:
    6
  15. Kika777

    Kika777 New Member

    Joined:
    Apr 17, 2018
    Messages:
    1
    Likes Received:
    0
    Thanks
     
  16. Adriano Everton

    Adriano Everton Well-Known Member

    Joined:
    Aug 25, 2014
    Messages:
    1,725
    Likes Received:
    183
  17. tn5656

    tn5656 Well-Known Member

    Joined:
    Jan 20, 2017
    Messages:
    3,546
    Likes Received:
    128
    thanks a lot
     
  18. ajguaein

    ajguaein New Member

    Joined:
    Mar 28, 2017
    Messages:
    12
    Likes Received:
    2
    thank you so much
     
  19. brunosantostar

    brunosantostar New Member

    Joined:
    Dec 16, 2016
    Messages:
    20
    Likes Received:
    0
    HE never wash the sma[​IMG]
    Code:
    General
    Complete name                            :Call Out By My Name.mp4
    Format                                   : MPEG-4
    Format profile                           : Base Media
    Codec ID                                 : isom
    File size                                : 58.8 MiB
    Duration                                 : 3mn 45s
    Overall bit rate                         : 2 185 Kbps
    Movie name                               : Call Out By My Name
    Writing application                      : Lavf57.41.100
    
    Video
    ID                                       : 1
    Format                                   : MPEG-4 Visual
    Codec ID                                 : 20
    Duration                                 : 3mn 45s
    Bit rate mode                            : Constant
    Bit rate                                 : 2 049 Kbps
    Width                                    : 718 pixels
    Height                                   : 1 280 pixels
    Display aspect ratio                     : 0.561
    Frame rate mode                          : Constant
    Frame rate                               : 30.000 fps
    Compression mode                         : Lossy
    Bits/(Pixel*Frame)                       : 0.074
    Stream size                              : 55.2 MiB (94%)
    
    Audio
    ID                                       : 2
    Format                                   : AAC
    Format/Info                              : Advanced Audio Codec
    Format profile                           : LC
    Codec ID                                 : 40
    Duration                                 : 3mn 45s
    Duration_LastFrame                       : -22ms
    Bit rate mode                            : Constant
    Bit rate                                 : 129 Kbps
    Channel(s)                               : 2 channels
    Channel positions                        : Front: L R
    Sampling rate                            : 44.1 KHz
    Compression mode                         : Lossy
    Stream size                              : 3.47 MiB (6%)
    
    ***Hidden content cannot be quoted.***

    [​IMG]
    Code:
    General
    Complete name                            : Try Me.mp4
    Format                                   : MPEG-4
    Format profile                           : Base Media
    Codec ID                                 : isom
    File size                                : 21.8 MiB
    Duration                                 : 3mn 41s
    Overall bit rate                         : 826 Kbps
    Movie name                               : Try Me
    Writing application                      : Lavf56.40.101
    
    Video
    ID                                       : 1
    Format                                   : AVC
    Format/Info                              : Advanced Video Codec
    Format profile                           : High@L3.1
    Format settings, CABAC                   : Yes
    Format settings, ReFrames                : 5 frames
    Codec ID                                 : avc1
    Codec ID/Info                            : Advanced Video Coding
    Duration                                 : 3mn 40s
    Bit rate                                 : 773 Kbps
    Width                                    : 718 pixels
    Height                                   : 1 280 pixels
    Display aspect ratio                     : 0.561
    Frame rate mode                          : Constant
    Frame rate                               : 30.000 fps
    Color space                              : YUV
    Chroma subsampling                       : 4:2:0
    Bit depth                                : 8 bits
    Scan type                                : Progressive
    Bits/(Pixel*Frame)                       : 0.028
    Stream size                              : 20.3 MiB (93%)
    Writing library                          : x264 core 148
    Encoding settings                        : cabac=1 / ref=5 / deblock=1:0:0 / analyse=0x3:0x113 / me=hex / subme=6 / psy=0 / mixed_ref=1 / me_range=16 / chroma_me=1 / trellis=1 / 8x8dct=1 / cqm=0 / deadzone=21,11 / fast_pskip=1 / chroma_qp_offset=0 / threads=40 / lookahead_threads=6 / sliced_threads=0 / nr=0 / decimate=1 / interlaced=0 / bluray_compat=0 / constrained_intra=0 / bframes=3 / b_pyramid=2 / b_adapt=1 / b_bias=0 / direct=1 / weightb=1 / open_gop=0 / weightp=1 / keyint=90 / keyint_min=9 / scenecut=40 / intra_refresh=0 / rc_lookahead=30 / rc=crf / mbtree=1 / crf=27.0 / qcomp=0.60 / qpmin=0 / qpmax=69 / qpstep=4 / vbv_maxrate=2500 / vbv_bufsize=5000 / crf_max=0.0 / nal_hrd=none / filler=0 / ip_ratio=1.40 / aq=2:1.00
    
    Audio
    ID                                       : 2
    Format                                   : AAC
    Format/Info                              : Advanced Audio Codec
    Format profile                           : HE-AAC / LC
    Codec ID                                 : 40
    Duration                                 : 3mn 41s
    Duration_LastFrame                       : 83ms
    Bit rate mode                            : Constant
    Bit rate                                 : 48.0 Kbps
    Channel(s)                               : 2 channels
    Channel positions                        : Front: L R
    Sampling rate                            : 48.0 KHz / 24.0 KHz
    Compression mode                         : Lossy
    Delay relative to video                  : -6s 0ms
    Stream size                              : 1.26 MiB (6%)
    
    ***Hidden content cannot be quoted.***[/QUOTE]