HDTV The Voice Brazil S08E06 [Aug-15-2019] GLOBOHD 1080i HDTV DD5.1 H.264 CELOBRAZiL-HDMania

Discussion in 'Interviews / TV shows / Others' started by CELOBRAZiL, Aug 20, 2019.

  1. CELOBRAZiL

    CELOBRAZiL Well-Known Member Capper V . I . P. Donor

    Joined:
    Oct 2, 2013
    Messages:
    7,603
    Likes Received:
    25,342
    The Voice Brazil S08E06 [Aug-15-2019] GLOBOHD 1080i HDTV DD5.1 H.264 CELOBRAZiL-HDMania

    [​IMG]



    Format : MPEG-TS
    File size : 6.89 GiB
    Duration : 1 h 5 min
    Overall bit rate mode : Variable
    Overall bit rate : 15.1 Mb/s

    Video
    ID : 273 (0x111)
    Menu ID : 257 (0x101)
    Format : AVC
    Format/Info : Advanced Video Codec
    Format profile : High@L4
    Format settings : CABAC / 2 Ref Frames
    Format settings, CABAC : Yes
    Format settings, RefFrames : 2 frames
    Format settings, GOP : M=3, N=15
    Codec ID : 27
    Duration : 1 h 5 min
    Bit rate mode : Variable
    Bit rate : 13.7 Mb/s
    Maximum bit rate : 24.0 Mb/s
    Width : 1 920 pixels
    Height : 1 080 pixels
    Display aspect ratio : 16:9
    Frame rate : 29.970 (30000/1001) FPS
    Color space : YUV
    Chroma subsampling : 4:2:0
    Bit depth : 8 bits
    Scan type : Interlaced
    Scan type, store method : Separated fields
    Scan order : Top Field First
    Bits/(Pixel*Frame) : 0.220
    Stream size : 6.25 GiB (91%)
    Color range : Limited
    Color primaries : BT.709
    Transfer characteristics : BT.709
    Matrix coefficients : BT.709

    Audio
    ID : 277 (0x115)
    Menu ID : 257 (0x101)
    Format : AC-3
    Format/Info : Audio Coding 3
    Commercial name : Dolby Digital
    Codec ID : 129
    Duration : 1 h 5 min
    Bit rate mode : Constant
    Bit rate : 640 kb/s
    Channel(s) : 6 channels
    Channel layout : L R C LFE Ls Rs
    Sampling rate : 48.0 kHz
    Frame rate : 31.250 FPS (1536 SPF)
    Bit depth : 16 bits
    Compression mode : Lossy
    Stream size : 299 MiB (4%)
    Language : English
    Service kind : Complete Main



    Link(s):
    Hidden Content:
    You must either reply or click 'Like' to see the hidden information contained here.
     
  2. Loading...


  3. CELOBRAZiL

    CELOBRAZiL Well-Known Member Capper V . I . P. Donor

    Joined:
    Oct 2, 2013
    Messages:
    7,603
    Likes Received:
    25,342
    :love::love::love:

    Added GOOGLE DRIVE link! :)
     
  4. CezarPE

    CezarPE Active Member

    Joined:
    Apr 19, 2017
    Messages:
    372
    Likes Received:
    79
    I LOVE YOU SO MUCH :love::love::love::love:
     
    CELOBRAZiL likes this.