The Vamps ft. Demi Lovato - Somebody To You (Nick.HD.1080i.DD5.1).-Crusha

Discussion in 'NICK HD' started by Crusha, Jun 23, 2015.

  1. Crusha

    Crusha Well-Known Member Capper

    Joined:
    Oct 15, 2014
    Messages:
    2,350
    Likes Received:
    2,415
    [​IMG]
    [​IMG]
    [​IMG]

    General
    ID : 1 (0x1)
    Complete name : The Vamps ft. Demi Lovato - Somebody To You (Nick.HD.1080i.DD5.1).-Crusha.ts
    Format : MPEG-TS
    File size : 86.9 MiB
    Duration : 3mn 13s
    Overall bit rate mode : Variable
    Overall bit rate : 3 762 Kbps

    Video
    ID : 2793 (0xAE9)
    Menu ID : 1513 (0x5E9)
    Format : AVC
    Format/Info : Advanced Video Codec
    Format profile : [email protected]
    Format settings, CABAC : Yes
    Format settings, ReFrames : 4 frames
    Codec ID : 27
    Duration : 3mn 13s
    Bit rate : 3 188 Kbps
    Width : 1 920 pixels
    Height : 1 080 pixels
    Display aspect ratio : 16:9
    Frame rate : 29.970 fps
    Standard : Component
    Color space : YUV
    Chroma subsampling : 4:2:0
    Bit depth : 8 bits
    Scan type : MBAFF
    Scan order : Top Field First
    Bits/(Pixel*Frame) : 0.051
    Stream size : 73.6 MiB (85%)
    Color primaries : BT.709
    Transfer characteristics : BT.709
    Matrix coefficients : BT.709
    Color range : Limited

    Audio
    ID : 3793 (0xED1)
    Menu ID : 1513 (0x5E9)
    Format : AC-3
    Format/Info : Audio Coding 3
    Mode extension : CM (complete main)
    Format settings, Endianness : Big
    Codec ID : 6
    Duration : 3mn 13s
    Bit rate mode : Constant
    Bit rate : 384 Kbps
    Channel(s) : 6 channels
    Channel positions : Front: L C R, Side: L R, LFE
    Sampling rate : 48.0 KHz
    Bit depth : 16 bits
    Compression mode : Lossy
    Stream size : 8.87 MiB (10%)
    Language : English

    Hidden Content:
    You must either reply or click 'Like' to see the hidden information contained here.
    Password: crusha

    Cap by Me :)
     
    anno2070, seesagun and Dfrazzer like this.
  2. Joseph

    Joseph Active Member

    Joined:
    Dec 10, 2013
    Messages:
    744
    Likes Received:
    168
    Where's the Nick logo, @Crusha ? thanks
     
  3. Crusha

    Crusha Well-Known Member Capper

    Joined:
    Oct 15, 2014
    Messages:
    2,350
    Likes Received:
    2,415
    Hi

    This happened when are going to short films.

    Therefore does not have logo.
     
  4. jayananda

    jayananda Active Member

    Joined:
    Jan 14, 2015
    Messages:
    424
    Likes Received:
    80
    Thank You
     
  5. Dfrazzer

    Dfrazzer Super Moderator Staff Member Super Moderator Capper V . I . P. Donor

    Joined:
    Nov 4, 2013
    Messages:
    4,325
    Likes Received:
    9,228
    Thanks so much.
     
  6. GSRemast21

    GSRemast21 Well-Known Member

    Joined:
    Dec 6, 2014
    Messages:
    451
    Likes Received:
    450
  7. Zeeh

    Zeeh Member

    Joined:
    Mar 20, 2015
    Messages:
    582
    Likes Received:
    12
    Thanks :)
     
  8. Lucky

    Lucky Member

    Joined:
    Sep 26, 2016
    Messages:
    277
    Likes Received:
    20
    thanks