SERIES The.Thundermans.S01.1080p.WEB-DL.x264.DDP2.0.DUAL-ReiDoBregaBR [20.14GB]

Discussion in 'Cinema Center' started by ReiDoBregaBR, Dec 10, 2019.

  1. ReiDoBregaBR

    ReiDoBregaBR Member

    Joined:
    Nov 26, 2018
    Messages:
    66
    Likes Received:
    16
    [​IMG]
    MEDIA INFO

    Code:
    General
    Unique ID                                : 187253662468310299429233184416813187716 (0x8CDFBE5AE426CD392EA68D94F8C28284)
    Complete name                            : The.Thundermans.S01E01.1080p.WEB-DL.x264.DDP2.0-ReiDoBregaBR.mkv
    Format                                   : Matroska
    Format version                           : Version 4 / Version 2
    File size                                : 1.24 GiB
    Duration                                 : 22 min 54 s
    Overall bit rate mode                    : Variable
    Overall bit rate                         : 7 745 kb/s
    Encoded date                             : UTC 2019-11-25 16:26:00
    Writing application                      : mkvmerge v33.0.0 ('A Little Bit of Madness') 64-bit
    Writing library                          : libebml v1.3.7 + libmatroska v1.5.0 / Lavf58.12.100
    
    Video
    ID                                       : 1
    Format                                   : AVC
    Format/Info                              : Advanced Video Codec
    Format profile                           : Main@L4
    Format settings                          : CABAC / 3 Ref Frames
    Format settings, CABAC                   : Yes
    Format settings, ReFrames                : 3 frames
    Codec ID                                 : V_MPEG4/ISO/AVC
    Duration                                 : 22 min 54 s
    Bit rate mode                            : Variable
    Bit rate                                 : 7 500 kb/s
    Maximum bit rate                         : 11.2 Mb/s
    Width                                    : 1 920 pixels
    Height                                   : 1 080 pixels
    Display aspect ratio                     : 16:9
    Frame rate mode                          : Constant
    Frame rate                               : 23.976 (24000/1001) FPS
    Color space                              : YUV
    Chroma subsampling                       : 4:2:0
    Bit depth                                : 8 bits
    Scan type                                : Progressive
    Bits/(Pixel*Frame)                       : 0.151
    Stream size                              : 1.20 GiB (97%)
    Writing library                          : x264 core 148 r2715 7e75228
    Encoding settings                        : cabac=1 / ref=3 / deblock=1:0:0 / analyse=0x1:0x111 / me=umh / subme=10 / psy=1 / psy_rd=1.00:0.00 / mixed_ref=1 / me_range=24 / chroma_me=1 / trellis=2 / 8x8dct=0 / cqm=0 / deadzone=21,11 / fast_pskip=1 / chroma_qp_offset=-2 / threads=6 / lookahead_threads=1 / sliced_threads=0 / nr=0 / decimate=1 / interlaced=0 / bluray_compat=0 / stitchable=1 / constrained_intra=0 / bframes=2 / b_pyramid=0 / b_adapt=2 / b_bias=0 / direct=3 / weightb=1 / open_gop=0 / weightp=2 / keyint=250 / keyint_min=23 / scenecut=0 / intra_refresh=0 / rc_lookahead=48 / rc=2pass / mbtree=1 / bitrate=7500 / ratetol=1.0 / qcomp=0.50 / qpmin=6 / qpmax=51 / qpstep=4 / cplxblur=20.0 / qblur=0.5 / vbv_maxrate=11250 / vbv_bufsize=15000 / nal_hrd=vbr / filler=0 / ip_ratio=1.40 / aq=1:1.00
    Default                                  : Yes
    Forced                                   : No
    
    Audio #1
    ID                                       : 2
    Format                                   : E-AC-3
    Format/Info                              : Enhanced Audio Coding 3
    Codec ID                                 : A_EAC3
    Duration                                 : 22 min 54 s
    Bit rate mode                            : Constant
    Bit rate                                 : 128 kb/s
    Channel(s)                               : 2 channels
    Channel positions                        : Front: L R
    Sampling rate                            : 48.0 kHz
    Frame rate                               : 187.500 FPS (256 SPF)
    Compression mode                         : Lossy
    Stream size                              : 21.0 MiB (2%)
    Title                                    : 2.0 [ReiDoBrega]
    Language                                 : Portuguese
    Service kind                             : Complete Main
    Default                                  : Yes
    Forced                                   : No
    
    Audio #2
    ID                                       : 3
    Format                                   : E-AC-3
    Format/Info                              : Enhanced Audio Coding 3
    Codec ID                                 : A_EAC3
    Duration                                 : 22 min 54 s
    Bit rate mode                            : Constant
    Bit rate                                 : 128 kb/s
    Channel(s)                               : 2 channels
    Channel positions                        : Front: L R
    Sampling rate                            : 48.0 kHz
    Frame rate                               : 187.500 FPS (256 SPF)
    Compression mode                         : Lossy
    Stream size                              : 21.0 MiB (2%)
    Title                                    : 2.0 [ReiDoBrega]
    Language                                 : English
    Service kind                             : Complete Main
    Default                                  : No
    Forced                                   : No
    
    SCREENS

    [​IMG]
    [​IMG]
    DOWNLOAD
    Hidden Content:
    You must reply before you can see the hidden data contained here.
     
    Alexxtg_12 and Brungor like this.
  2. Brungor

    Brungor From The Planet Glamtron

    Joined:
    Dec 9, 2015
    Messages:
    850
    Likes Received:
    464
    Thanks bro
    [​IMG]
     
  3. xdgame

    xdgame Member

    Joined:
    Feb 3, 2019
    Messages:
    167
    Likes Received:
    3
    thanks
     
  4. hannibalsmith

    hannibalsmith Member

    Joined:
    Apr 4, 2018
    Messages:
    109
    Likes Received:
    22
    Thank You
     
  5. Evens01

    Evens01 Member

    Joined:
    Feb 5, 2016
    Messages:
    550
    Likes Received:
    9
    thanks
     
  6. alberto@xd

    alberto@xd New Member

    Joined:
    Dec 20, 2019
    Messages:
    13
    Likes Received:
    2
    Gracias
     
  7. Alexxtg_12

    Alexxtg_12 Member

    Joined:
    Dec 2, 2018
    Messages:
    129
    Likes Received:
    7
    Gracias
     
  8. archie1985

    archie1985 Member

    Joined:
    Dec 30, 2017
    Messages:
    72
    Likes Received:
    1
  9. edgelord75

    edgelord75 Member

    Joined:
    Apr 4, 2018
    Messages:
    85
    Likes Received:
    2