The Saturdays - Up (MTV BASE HD-1080i-DD2.0-Olgold)

Discussion in 'MTV BASE' started by DETOX, Jan 15, 2016.

  1. DETOX

    DETOX Well-Known Member V . I . P. Uploader

    Joined:
    Feb 20, 2014
    Messages:
    2,757
    Likes Received:
    13,960
    [​IMG]
    Code:
    General
    ID                                       : 1070 (0x42E)
    Complete name                            : The Saturdays - Up (MTV BASE HD-1080i-DD2.0-Olgold).ts
    Format                                   : MPEG-TS
    File size                                : 133 MiB
    Duration                                 : 3mn 21s
    Overall bit rate mode                    : Variable
    Overall bit rate                         : 5 524 Kbps
    
    Video
    ID                                       : 110 (0x6E)
    Menu ID                                  : 8001 (0x1F41)
    Format                                   : AVC
    Format/Info                              : Advanced Video Codec
    Format profile                           : [email protected]
    Format settings, CABAC                   : Yes
    Format settings, ReFrames                : 4 frames
    Codec ID                                 : 27
    Duration                                 : 3mn 21s
    Bit rate                                 : 5 057 Kbps
    Width                                    : 1 920 pixels
    Height                                   : 1 080 pixels
    Display aspect ratio                     : 16:9
    Frame rate                               : 25.000 fps
    Standard                                 : Component
    Color space                              : YUV
    Chroma subsampling                       : 4:2:0
    Bit depth                                : 8 bits
    Scan type                                : MBAFF
    Scan order                               : Top Field First
    Bits/(Pixel*Frame)                       : 0.098
    Stream size                              : 121 MiB (92%)
    Encryption                               : Seca Mediaguard 1/2
    Color range                              : Limited
    Color primaries                          : BT.709
    Transfer characteristics                 : BT.709
    Matrix coefficients                      : BT.709
    
    Audio
    ID                                       : 121 (0x79)
    Menu ID                                  : 8001 (0x1F41)
    Format                                   : AC-3
    Format/Info                              : Audio Coding 3
    Mode extension                           : CM (complete main)
    Format settings, Endianness              : Big
    Codec ID                                 : 6
    Duration                                 : 3mn 21s
    Bit rate mode                            : Constant
    Bit rate                                 : 192 Kbps
    Channel(s)                               : 2 channels
    Channel positions                        : Front: L R
    Sampling rate                            : 48.0 KHz
    Bit depth                                : 16 bits
    Compression mode                         : Lossy
    Delay relative to video                  : -24ms
    Stream size                              : 4.61 MiB (3%)
    Language                                 : French
    Encryption                               : Seca Mediaguard 1/2
    
    Menu
    ID                                       : 100 (0x64)
    Menu ID                                  : 8001 (0x1F41)
    Duration                                 : 3mn 21s
    List                                     : 110 (0x6E) (AVC) / 121 (0x79) (AC-3, French)
    Language                                 :  / French
    Server: cloud.mail.ru
    Hidden Content:
    You must reply before you can see the hidden data contained here.
     
  2. Loading...


  3. Dfrazzer

    Dfrazzer Super Moderator Staff Member Super Moderator Capper V . I . P. Donor

    Joined:
    Nov 4, 2013
    Messages:
    3,896
    Likes Received:
    7,730
    Thanks I've never seen this in hd.
     
  4. arnold

    arnold Member

    Joined:
    Oct 29, 2014
    Messages:
    232
    Likes Received:
    3
    thank yoooou
     
  5. Bouncer

    Bouncer Member

    Joined:
    Jan 5, 2016
    Messages:
    386
    Likes Received:
    7
    thank yo
     
  6. nolynexor88

    nolynexor88 Active Member

    Joined:
    Sep 29, 2015
    Messages:
    828
    Likes Received:
    26
    Thank you.:)
     
  7. rhea

    rhea Well-Known Member

    Joined:
    Jan 6, 2014
    Messages:
    5,266
    Likes Received:
    253
    thank you so much! :)
     
  8. Trop1cal

    Trop1cal Member

    Joined:
    Feb 5, 2015
    Messages:
    500
    Likes Received:
    10
    Thank you.
     
  9. akon111

    akon111 Member

    Joined:
    Dec 29, 2015
    Messages:
    167
    Likes Received:
    0
    thanks
     
  10. JSmoove

    JSmoove Member

    Joined:
    Nov 27, 2013
    Messages:
    57
    Likes Received:
    1
    thanks!
     
  11. Little Mixers

    Little Mixers Member

    Joined:
    Apr 16, 2016
    Messages:
    46
    Likes Received:
    1
  12. mrlol7777777

    mrlol7777777 New Member

    Joined:
    Nov 19, 2016
    Messages:
    1
    Likes Received:
    0
    Thank you
     
  13. revilo18

    revilo18 Well-Known Member

    Joined:
    May 26, 2016
    Messages:
    1,310
    Likes Received:
    56
    THANKK