The Rolling Stones - Living In A Ghost Town (Vh1HD.HDTV.1080i.x264.AC3.DD.2.0-ValterSc)

Discussion in 'VH1 HD' started by valtersc, Sep 29, 2020.

  1. valtersc

    valtersc Well-Known Member

    Joined:
    Nov 19, 2014
    Messages:
    721
    Likes Received:
    782
    [​IMG]

    General
    ID : 1 (0x1)
    Complete name : The Rolling Stones - Living In A Ghost Town (Vh1HD.HDTV.1080i.x264.AC3.DD.2.0-ValterSc).ts
    Format : MPEG-TS
    File size : 175 MiB
    Duration : 3 min 47 s
    Overall bit rate mode : Variable
    Overall bit rate : 6 446 kb/s

    Video
    ID : 5343 (0x14DF)
    Menu ID : 625 (0x271)
    Format : AVC
    Format/Info : Advanced Video Codec
    Format profile : High@L4
    Format settings : CABAC / 4 Ref Frames
    Format settings, CABAC : Yes
    Format settings, Reference fra : 4 frames
    Codec ID : 27
    Duration : 3 min 47 s
    Bit rate : 5 740 kb/s
    Width : 1 920 pixels
    Height : 1 080 pixels
    Display aspect ratio : 16:9
    Frame rate : 29.970 (30000/1001) FPS
    Color space : YUV
    Chroma subsampling : 4:2:0
    Bit depth : 8 bits
    Scan type : Interlaced
    Scan type, store method : Separated fields
    Scan order : Top Field First
    Bits/(Pixel*Frame) : 0.092
    Stream size : 156 MiB (89%)
    Color range : Limited
    Color primaries : BT.709
    Transfer characteristics : BT.709
    Matrix coefficients : BT.709

    Audio
    ID : 5341 (0x14DD)
    Menu ID : 625 (0x271)
    Format : AC-3
    Format/Info : Audio Coding 3
    Commercial name : Dolby Digital
    Codec ID : 6
    Duration : 3 min 47 s
    Bit rate mode : Constant
    Bit rate : 384 kb/s
    Channel(s) : 2 channels
    Channel layout : L R
    Sampling rate : 48.0 kHz
    Frame rate : 31.250 FPS (1536 SPF)
    Compression mode : Lossy
    Stream size : 10.4 MiB (6%)
    Language : English
    Service kind : Complete Main

    Hidden Content:
    You must reply before you can see the hidden data contained here.
     
    Satya and rhea like this.
  2. Loading...


  3. jonathan joel 97

    jonathan joel 97 Sasuke

    Joined:
    Oct 1, 2015
    Messages:
    446
    Likes Received:
    279
  4. rhea

    rhea Well-Known Member

    Joined:
    Jan 6, 2014
    Messages:
    11,165
    Likes Received:
    2,145
    thank you so much!
     
  5. Satya

    Satya Active Member

    Joined:
    Jul 17, 2019
    Messages:
    430
    Likes Received:
    93
    Thank you.