HDTV The Ride - Jennifer Lopez [21-Dec-2018] MTVHD 1080i HDTV DD2.0 H.264 CELOBRAZiL-HDMania

Discussion in 'Documentaries' started by CELOBRAZiL, Dec 22, 2018.

  1. CELOBRAZiL

    CELOBRAZiL Well-Known Member Capper V . I . P. Donor

    Joined:
    Oct 2, 2013
    Messages:
    6,708
    Likes Received:
    21,641
    The Ride - Jennifer Lopez [21-Dec-2018] MTVHD 1080i HDTV DD2.0 H.264 CELOBRAZiL-HDMania

    [​IMG]



    Format : MPEG-TS
    File size : 965 MiB
    Duration : 22 min 22 s
    Overall bit rate mode : Variable
    Overall bit rate : 6 033 kb/s

    Video
    ID : 4128 (0x1020)
    Menu ID : 5040 (0x13B0)
    Format : AVC
    Format/Info : Advanced Video Codec
    Format profile : High@L4
    Format settings : CABAC / 3 Ref Frames
    Format settings, CABAC : Yes
    Format settings, RefFrames : 3 frames
    Codec ID : 27
    Duration : 22 min 22 s
    Bit rate : 5 541 kb/s
    Width : 1 920 pixels
    Height : 1 080 pixels
    Display aspect ratio : 16:9
    Frame rate : 29.970 (30000/1001) FPS
    Color space : YUV
    Chroma subsampling : 4:2:0
    Bit depth : 8 bits
    Scan type : MBAFF
    Scan type, store method : Interleaved fields
    Scan order : Top Field First
    Bits/(Pixel*Frame) : 0.089
    Stream size : 887 MiB (92%)

    Audio
    ID : 4130 (0x1022)
    Menu ID : 5040 (0x13B0)
    Format : AC-3
    Format/Info : Audio Coding 3
    Commercial name : Dolby Digital
    Codec ID : 129
    Duration : 22 min 22 s
    Bit rate mode : Constant
    Bit rate : 192 kb/s
    Channel(s) : 2 channels
    Channel layout : L R
    Sampling rate : 48.0 kHz
    Frame rate : 31.250 FPS (1536 SPF)
    Bit depth : 16 bits
    Compression mode : Lossy
    Stream size : 30.7 MiB (3%)
    Language : English
    Service kind : Complete Main


    Link(s):
    Hidden Content:
    You must either reply or click 'Like' to see the hidden information contained here.
     
    Last edited: Jan 14, 2019
    lim, HEUK2, jloveres and 18 others like this.
  2. Loading...


  3. CELOBRAZiL

    CELOBRAZiL Well-Known Member Capper V . I . P. Donor

    Joined:
    Oct 2, 2013
    Messages:
    6,708
    Likes Received:
    21,641
  4. chrisjlover2

    chrisjlover2 Active Member

    Joined:
    Oct 25, 2015
    Messages:
    254
    Likes Received:
    56
    Thanks so much.
     
    CELOBRAZiL likes this.
  5. Pedro Correia

    Pedro Correia Well-Known Member

    Joined:
    Apr 17, 2014
    Messages:
    1,768
    Likes Received:
    187
    Thank you so much!
     
    CELOBRAZiL likes this.
  6. Jawni

    Jawni Well-Known Member

    Joined:
    Jan 24, 2014
    Messages:
    1,032
    Likes Received:
    46
    Thank you :)
     
    CELOBRAZiL likes this.
  7. Cadu

    Cadu Member

    Joined:
    Feb 1, 2016
    Messages:
    363
    Likes Received:
    23
    thanks
     
    CELOBRAZiL likes this.
  8. marence87

    marence87 Well-Known Member

    Joined:
    Jun 15, 2016
    Messages:
    363
    Likes Received:
    431
    Thanks
     
    CELOBRAZiL likes this.
  9. Ralph43

    Ralph43 Member

    Joined:
    Jan 2, 2017
    Messages:
    70
    Likes Received:
    6
    thanks
     
    CELOBRAZiL likes this.
  10. John1995

    John1995 Member

    Joined:
    Dec 7, 2014
    Messages:
    66
    Likes Received:
    3
    Thank you
     
    CELOBRAZiL likes this.
  11. MTC

    MTC Member

    Joined:
    Jul 13, 2018
    Messages:
    986
    Likes Received:
    17
    Thanks
     
    CELOBRAZiL likes this.
  12. DtothaLO6

    DtothaLO6 Member

    Joined:
    Aug 13, 2014
    Messages:
    176
    Likes Received:
    12
    THANK YOU
     
    CELOBRAZiL likes this.
  13. Whosvinnicius

    Whosvinnicius Member

    Joined:
    Jul 14, 2015
    Messages:
    58
    Likes Received:
    8
    thanks
     
    CELOBRAZiL likes this.
  14. peny20

    peny20 Well-Known Member

    Joined:
    Oct 23, 2013
    Messages:
    2,620
    Likes Received:
    72
    thank you
     
    CELOBRAZiL likes this.
  15. Causeislae

    Causeislae Active Member

    Joined:
    Jul 9, 2017
    Messages:
    570
    Likes Received:
    49
    Thanks
     
    CELOBRAZiL likes this.
  16. lulu0128

    lulu0128 New Member

    Joined:
    Jan 4, 2019
    Messages:
    1
    Likes Received:
    0
    are you going to post part 2?
     
  17. CELOBRAZiL

    CELOBRAZiL Well-Known Member Capper V . I . P. Donor

    Joined:
    Oct 2, 2013
    Messages:
    6,708
    Likes Received:
    21,641
    Added Google Drive links! :)
     
  18. CELOBRAZiL

    CELOBRAZiL Well-Known Member Capper V . I . P. Donor

    Joined:
    Oct 2, 2013
    Messages:
    6,708
    Likes Received:
    21,641
    Added mega links! :)
     
  19. malllll

    malllll Member

    Joined:
    Jan 29, 2019
    Messages:
    52
    Likes Received:
    4
    thank you
     
    CELOBRAZiL likes this.
  20. josipcikac

    josipcikac Member

    Joined:
    Sep 25, 2016
    Messages:
    258
    Likes Received:
    20
    thnaks
     
    CELOBRAZiL likes this.
  21. Wagnerr

    Wagnerr Member

    Joined:
    Sep 21, 2014
    Messages:
    382
    Likes Received:
    15
    thanks
     
    CELOBRAZiL likes this.