The Ride - Bebe Rexha 2017-05-08 MTVHD 1080i HDTV DD2.0 H.264 CELOBRAZiL-HDMania

Discussion in 'Documentaries' started by CELOBRAZiL, May 30, 2017.

  1. CELOBRAZiL

    CELOBRAZiL Well-Known Member Capper V . I . P. Donor

    Joined:
    Oct 2, 2013
    Messages:
    5,363
    Likes Received:
    17,153
    The Ride - Bebe Rexha 2017-05-08 MTVHD 1080i HDTV DD2.0 H.264 CELOBRAZiL-HDMania

    [​IMG]



    Format : MPEG-TS
    File size : 1.94 GiB
    Duration : 43mn 36s
    Overall bit rate mode : Variable
    Overall bit rate : 6 359 Kbps

    Video
    ID : 2760 (0xAC8)
    Menu ID : 5040 (0x13B0)
    Format : AVC
    Format/Info : Advanced Video Codec
    Format profile : High@L4
    Format settings, CABAC : Yes
    Format settings, ReFrames : 3 frames
    Codec ID : 27
    Duration : 43mn 38s
    Bit rate : 5 851 Kbps
    Width : 1 920 pixels
    Height : 1 080 pixels
    Display aspect ratio : 16:9
    Frame rate : 29.970 fps
    Color space : YUV
    Chroma subsampling : 4:2:0
    Bit depth : 8 bits
    Scan type : MBAFF
    Scan order : Top Field First
    Bits/(Pixel*Frame) : 0.094
    Stream size : 1.78 GiB (92%)

    Audio
    ID : 2725 (0xAA5)
    Menu ID : 5040 (0x13B0)
    Format : AC-3
    Format/Info : Audio Coding 3
    Mode extension : CM (complete main)
    Format settings, Endianness : Big
    Codec ID : 129
    Duration : 43mn 38s
    Bit rate mode : Constant
    Bit rate : 192 Kbps
    Channel(s) : 2 channels
    Channel positions : Front: L R
    Sampling rate : 48.0 KHz
    Bit depth : 16 bits
    Compression mode : Lossy
    Stream size : 59.9 MiB (3%)
    Language : English

    Link(s):
    Hidden Content:
    You must either reply or click 'Like' to see the hidden information contained here.
     
    Last edited: May 30, 2017
  2. Loading...


  3. CELOBRAZiL

    CELOBRAZiL Well-Known Member Capper V . I . P. Donor

    Joined:
    Oct 2, 2013
    Messages:
    5,363
    Likes Received:
    17,153
    I'm uploading... Just waiting! :)
     
    rasputin and Valdez Além like this.
  4. CELOBRAZiL

    CELOBRAZiL Well-Known Member Capper V . I . P. Donor

    Joined:
    Oct 2, 2013
    Messages:
    5,363
    Likes Received:
    17,153
    I finished the upload! :)
     
    rasputin likes this.
  5. Thassyo

    Thassyo Well-Known Member

    Joined:
    Oct 9, 2013
    Messages:
    2,839
    Likes Received:
    1,280
    Thanks so much!
     
    CELOBRAZiL likes this.
  6. esliminaj

    esliminaj Member

    Joined:
    May 15, 2017
    Messages:
    285
    Likes Received:
    20
    thanks ♥
     
    CELOBRAZiL likes this.
  7. franklele

    franklele Well-Known Member

    Joined:
    Nov 11, 2013
    Messages:
    2,451
    Likes Received:
    150
    thank you very much
     
    CELOBRAZiL likes this.
  8. hanshermann

    hanshermann Well-Known Member Uploader

    Joined:
    Aug 24, 2016
    Messages:
    6,659
    Likes Received:
    10,466
    wahts taht
     
  9. Pavulon

    Pavulon Well-Known Member Donor

    Joined:
    Mar 22, 2016
    Messages:
    4,476
    Likes Received:
    937
    thanks
     
    CELOBRAZiL likes this.
  10. Bouncer

    Bouncer Member

    Joined:
    Jan 5, 2016
    Messages:
    557
    Likes Received:
    15
    tks tks
     
    CELOBRAZiL likes this.
  11. juliensharema

    juliensharema Member

    Joined:
    Apr 17, 2017
    Messages:
    65
    Likes Received:
    7
    merci
     
    CELOBRAZiL likes this.
  12. klodrik

    klodrik Active Member

    Joined:
    May 29, 2017
    Messages:
    929
    Likes Received:
    47
    Thanks
     
    CELOBRAZiL likes this.
  13. rasputin

    rasputin Active Member

    Joined:
    Dec 9, 2015
    Messages:
    558
    Likes Received:
    33
    thanx
     
  14. stslevator

    stslevator New Member

    Joined:
    Jun 12, 2018
    Messages:
    3
    Likes Received:
    0
    How can you do this with Rita's ride? I do not find it here in Brazil.