The Rasmus - In The Shadows (Deluxe Music HD-1080i-DD2.0)-Olgold

Discussion in 'DELUXE MUSIC HD' started by Olgold, Aug 26, 2015.

  1. Olgold

    Olgold Well-Known Member Capper

    Joined:
    Aug 19, 2015
    Messages:
    436
    Likes Received:
    1,677
    [​IMG]
    General
    Format : MPEG-TS
    File size : 135 MiB
    Duration : 3mn 36s
    Overall bit rate mode : Variable
    Overall bit rate : 5 224 Kbps

    Video
    Format : AVC
    Format/Info : Advanced Video Codec
    Format profile : [email protected]
    Format settings, CABAC : Yes
    Format settings, ReFrames : 4 frames
    Duration : 3mn 36s
    Bit rate : 4 578 Kbps
    Width : 1 280 pixels
    Height : 1 080 pixels
    Display aspect ratio : 16:9
    Frame rate : 25.000 fps
    Standard : Component
    Color space : YUV
    Chroma subsampling : 4:2:0
    Bit depth : 8 bits
    Scan type : MBAFF
    Scan order : Top Field First
    Bits/(Pixel*Frame) : 0.132
    Stream size : 118 MiB (88%)
    Color range : Limited

    Audio
    Format : AC-3
    Format/Info : Audio Coding 3
    Mode extension : CM (complete main)
    Format settings, Endianness : Big
    Duration : 3mn 36s
    Bit rate mode : Constant
    Bit rate : 384 Kbps
    Channel(s) : 2 channels
    Channel positions : Front: L R
    Sampling rate : 48.0 KHz
    Compression mode : Lossy
    Delay relative to video : -14ms
    Stream size : 9.93 MiB (7%)
    Language : German
    Language, more info : Clean effects

    Hidden Content:
    You must reply before you can see the hidden data contained here.
     
    couillerot, sheep, rhea and 5 others like this.
  2. adam dark

    adam dark Video Music Lover <3 V . I . P.

    Joined:
    Dec 5, 2013
    Messages:
    2,601
    Likes Received:
    4,784
    Oh god thank you! One of my favorite songs!!! :)
     
    777josem likes this.
  3. Djodjara

    Djodjara Gwen Fan Capper

    Joined:
    Sep 6, 2014
    Messages:
    784
    Likes Received:
    1,415
    Thank you :D
     
    777josem likes this.
  4. 777josem

    777josem ProRes 1080p LPCM V . I . P. Uploader

    Joined:
    Sep 1, 2014
    Messages:
    3,573
    Likes Received:
    2,750
    :DThank you so much!
     
  5. Dreamer

    Dreamer Lana Del Rey ♥ Halsey Capper V . I . P. Uploader

    Joined:
    Dec 4, 2014
    Messages:
    2,805
    Likes Received:
    3,934
    Thank you so much
     
  6. MaggieS

    MaggieS Well-Known Member

    Joined:
    Sep 19, 2014
    Messages:
    1,022
    Likes Received:
    48
    tnx u
     
  7. Crusha

    Crusha Well-Known Member Capper V . I . P.

    Joined:
    Oct 15, 2014
    Messages:
    2,355
    Likes Received:
    2,523
    muy buen tema.. gracias
     
  8. rhea

    rhea Well-Known Member

    Joined:
    Jan 6, 2014
    Messages:
    6,620
    Likes Received:
    681
    thank you so much
     
  9. Snorom6

    Snorom6 Well-Known Member V . I . P. Uploader

    Joined:
    Dec 17, 2015
    Messages:
    4,247
    Likes Received:
    4,879
  10. limonato

    limonato Member

    Joined:
    Dec 1, 2014
    Messages:
    206
    Likes Received:
    4
    thank you
     
  11. Ivan1980

    Ivan1980 Member

    Joined:
    Jan 9, 2016
    Messages:
    95
    Likes Received:
    1
    Thank you
     
  12. Emazing

    Emazing Member

    Joined:
    Nov 6, 2013
    Messages:
    48
    Likes Received:
    0
    Holy cow this band thanks
     
  13. dapape

    dapape Member

    Joined:
    Jun 9, 2014
    Messages:
    134
    Likes Received:
    1
    thank you
     
  14. rdpillz

    rdpillz Member

    Joined:
    Mar 13, 2016
    Messages:
    64
    Likes Received:
    1
    thanks
     
  15. hankdt001

    hankdt001 Member

    Joined:
    Jan 21, 2016
    Messages:
    105
    Likes Received:
    3
    likettt
     
  16. Pavulon

    Pavulon Well-Known Member

    Joined:
    Mar 22, 2016
    Messages:
    2,795
    Likes Received:
    312
  17. Jorge Barrionuevo

    Jorge Barrionuevo Well-Known Member

    Joined:
    Jun 9, 2015
    Messages:
    1,251
    Likes Received:
    473
    GRACIAS!
     
  18. sheep

    sheep New Member

    Joined:
    Jun 17, 2016
    Messages:
    12
    Likes Received:
    1
    my favorite song of all time, thank you :D
     
  19. rimisark

    rimisark Member

    Joined:
    Jul 22, 2016
    Messages:
    149
    Likes Received:
    2
    thank you!
     
  20. Johan Pinzon

    Johan Pinzon Member

    Joined:
    Aug 15, 2016
    Messages:
    304
    Likes Received:
    12