The Rasmus - In The Shadows (Deluxe Music HD-1080i-DD2.0)-Olgold

Discussion in 'DELUXE MUSIC HD' started by Olgold, Aug 26, 2015.

  1. Olgold

    Olgold Well-Known Member Capper

    Joined:
    Aug 19, 2015
    Messages:
    386
    Likes Received:
    1,309
    [​IMG]
    General
    Format : MPEG-TS
    File size : 135 MiB
    Duration : 3mn 36s
    Overall bit rate mode : Variable
    Overall bit rate : 5 224 Kbps

    Video
    Format : AVC
    Format/Info : Advanced Video Codec
    Format profile : High@L4
    Format settings, CABAC : Yes
    Format settings, ReFrames : 4 frames
    Duration : 3mn 36s
    Bit rate : 4 578 Kbps
    Width : 1 280 pixels
    Height : 1 080 pixels
    Display aspect ratio : 16:9
    Frame rate : 25.000 fps
    Standard : Component
    Color space : YUV
    Chroma subsampling : 4:2:0
    Bit depth : 8 bits
    Scan type : MBAFF
    Scan order : Top Field First
    Bits/(Pixel*Frame) : 0.132
    Stream size : 118 MiB (88%)
    Color range : Limited

    Audio
    Format : AC-3
    Format/Info : Audio Coding 3
    Mode extension : CM (complete main)
    Format settings, Endianness : Big
    Duration : 3mn 36s
    Bit rate mode : Constant
    Bit rate : 384 Kbps
    Channel(s) : 2 channels
    Channel positions : Front: L R
    Sampling rate : 48.0 KHz
    Compression mode : Lossy
    Delay relative to video : -14ms
    Stream size : 9.93 MiB (7%)
    Language : German
    Language, more info : Clean effects

    Hidden Content:
    You must reply before you can see the hidden data contained here.
     
    sheep, rhea, Dreamer and 4 others like this.
  2. adam dark

    adam dark Well-Known Member

    Joined:
    Dec 5, 2013
    Messages:
    2,475
    Likes Received:
    3,815
    Oh god thank you! One of my favorite songs!!! :)
     
    777josem likes this.
  3. Djodjara

    Djodjara Gwen Fan Capper

    Joined:
    Sep 6, 2014
    Messages:
    649
    Likes Received:
    1,070
    Thank you :D
     
    777josem likes this.
  4. 777josem

    777josem Well-Known Member Uploader

    Joined:
    Sep 1, 2014
    Messages:
    2,423
    Likes Received:
    1,293
    :DThank you so much!
     
  5. Dreamer

    Dreamer ♫ It's Britney Bitch ♫ Capper Uploader

    Joined:
    Dec 4, 2014
    Messages:
    2,209
    Likes Received:
    1,924
    Thank you so much
     
  6. MaggieS

    MaggieS Active Member

    Joined:
    Sep 19, 2014
    Messages:
    925
    Likes Received:
    34
    tnx u
     
  7. Crusha

    Crusha Well-Known Member Capper

    Joined:
    Oct 15, 2014
    Messages:
    2,350
    Likes Received:
    2,134
    muy buen tema.. gracias
     
  8. rhea

    rhea Well-Known Member

    Joined:
    Jan 6, 2014
    Messages:
    5,258
    Likes Received:
    253
    thank you so much
     
  9. Snorom6

    Snorom6 Well-Known Member Uploader

    Joined:
    Dec 17, 2015
    Messages:
    4,246
    Likes Received:
    3,532
  10. limonato

    limonato Member

    Joined:
    Dec 1, 2014
    Messages:
    179
    Likes Received:
    0
    thank you
     
  11. Ivan1980

    Ivan1980 Member

    Joined:
    Jan 9, 2016
    Messages:
    95
    Likes Received:
    1
    Thank you
     
  12. Emazing

    Emazing Member

    Joined:
    Nov 6, 2013
    Messages:
    48
    Likes Received:
    0
    Holy cow this band thanks
     
  13. dapape

    dapape Member

    Joined:
    Jun 9, 2014
    Messages:
    134
    Likes Received:
    1
    thank you
     
  14. rdpillz

    rdpillz Member

    Joined:
    Mar 13, 2016
    Messages:
    62
    Likes Received:
    1
    thanks
     
  15. hankdt001

    hankdt001 Member

    Joined:
    Jan 21, 2016
    Messages:
    41
    Likes Received:
    3
    likettt
     
  16. Pavulon

    Pavulon Active Member

    Joined:
    Mar 22, 2016
    Messages:
    1,040
    Likes Received:
    11
  17. Jorge Barrionuevo

    Jorge Barrionuevo Active Member

    Joined:
    Jun 9, 2015
    Messages:
    794
    Likes Received:
    247
    GRACIAS!
     
  18. sheep

    sheep New Member

    Joined:
    Jun 17, 2016
    Messages:
    12
    Likes Received:
    1
    my favorite song of all time, thank you :D
     
  19. rimisark

    rimisark Member

    Joined:
    Jul 22, 2016
    Messages:
    133
    Likes Received:
    2
    thank you!
     
  20. Johan Pinzon

    Johan Pinzon Member

    Joined:
    Aug 15, 2016
    Messages:
    294
    Likes Received:
    11